<?xml version="1.0" standalone="no"?>
<!DOCTYPE svg PUBLIC "-//W3C//DTD SVG 1.1//EN" "http://www.w3.org/Graphics/SVG/1.1/DTD/svg11.dtd" >
<svg xmlns="http://www.w3.org/2000/svg" xmlns:xlink="http://www.w3.org/1999/xlink" version="1.1">
<metadata>
Created by FontForge 20190801 at Fri Oct 14 19:22:52 2016
 By root
Copyright (c) 2015 by atipo. All rights reserved.
</metadata>
<defs>
<font id="Geomanist-MediumItalic" horiz-adv-x="247" >
  <font-face 
    font-family="Geomanist"
    font-weight="500"
    font-style="italic"
    font-stretch="normal"
    units-per-em="1000"
    panose-1="2 0 6 3 0 0 0 9 0 4"
    ascent="750"
    descent="-250"
    x-height="523"
    cap-height="700"
    bbox="-74 -291 1191 1013"
    underline-thickness="50"
    underline-position="-100"
    unicode-range="U+0020-F6C3"
  />
<missing-glyph horiz-adv-x="508" 
d="M4 0l117 700h500l-117 -700h-500zM320 395l213 255h-340zM343 350l127 -255l85 510zM70 95l213 255l-128 255zM92 50h340l-127 255z" />
    <glyph glyph-name="ellipsis" unicode="&#x2e;&#x2e;&#x2e;" horiz-adv-x="769" 
d="M120 -13c-43 0 -72 32 -72 73c0 51 48 97 101 97c43 0 71 -33 71 -74c0 -52 -47 -96 -100 -96zM382 -13c-43 0 -72 32 -72 73c0 51 48 97 101 97c43 0 71 -33 71 -74c0 -52 -47 -96 -100 -96zM645 -13c-43 0 -72 32 -72 73c0 51 48 97 101 97c43 0 71 -33 71 -74
c0 -52 -47 -96 -100 -96z" />
    <glyph glyph-name=".notdef" horiz-adv-x="508" 
d="M4 0l117 700h500l-117 -700h-500zM320 395l213 255h-340zM343 350l127 -255l85 510zM70 95l213 255l-128 255zM92 50h340l-127 255z" />
    <glyph glyph-name="space" unicode=" " horiz-adv-x="248" 
 />
    <glyph glyph-name="numbersign" unicode="#" horiz-adv-x="659" 
d="M86 0l67 178h-97l38 104h98l50 134h-97l38 105h98l68 179h115l-67 -179h111l67 179h116l-67 -179h96l-38 -105h-97l-50 -134h96l-38 -104h-97l-67 -178h-116l67 178h-111l-67 -178h-116zM308 282h111l50 134h-111z" />
    <glyph glyph-name="percent" unicode="%" horiz-adv-x="804" 
d="M70 0l647 700h134l-647 -700h-134zM462 569c0 -102 -92 -190 -201 -190c-87 0 -144 64 -144 144c0 102 92 190 200 190c88 0 145 -64 145 -144zM223 536c0 -31 20 -57 55 -57c45 0 77 37 77 77c0 31 -19 57 -54 57c-45 0 -78 -37 -78 -77zM803 175
c0 -102 -93 -190 -201 -190c-88 0 -144 64 -144 144c0 102 92 190 200 190c88 0 145 -64 145 -144zM564 142c0 -31 20 -57 55 -57c45 0 77 37 77 77c0 31 -19 57 -54 57c-45 0 -78 -37 -78 -77z" />
    <glyph glyph-name="quotesingle" unicode="'" horiz-adv-x="199" 
d="M125 462l35 238h112l-45 -238h-102z" />
    <glyph glyph-name="parenleft" unicode="(" horiz-adv-x="332" 
d="M282 596l-93 -558c-9 -51 9 -85 72 -85l-20 -119c-152 0 -211 74 -188 211l91 543c23 137 106 212 258 212l-20 -119c-63 0 -91 -34 -100 -85z" />
    <glyph glyph-name="parenright" unicode=")" horiz-adv-x="333" 
d="M156 38l94 558c8 51 -9 85 -72 85l20 119c152 0 210 -75 187 -212l-91 -543c-23 -137 -106 -211 -258 -211l20 119c63 0 92 34 100 85z" />
    <glyph glyph-name="asterisk" unicode="*" horiz-adv-x="434" 
d="M131 569l61 79l77 -49l17 101h94l-17 -101l96 49l32 -79l-95 -49l80 -48l-60 -80l-79 50l-17 -101h-94l17 101l-94 -50l-34 79l95 49z" />
    <glyph glyph-name="plus" unicode="+" horiz-adv-x="550" 
d="M79 256l19 111h181l32 192h116l-32 -192h181l-19 -111h-181l-32 -193h-116l32 193h-181z" />
    <glyph glyph-name="comma" unicode="," horiz-adv-x="244" 
d="M25 -93c23 14 65 49 79 81c-38 9 -57 40 -57 72c0 51 48 97 100 97c42 0 74 -28 74 -76c0 -88 -70 -182 -149 -234z" />
    <glyph glyph-name="hyphen" unicode="-" horiz-adv-x="369" 
d="M85 242l21 124h278l-21 -124h-278z" />
    <glyph glyph-name="period" unicode="." horiz-adv-x="245" 
d="M120 -13c-43 0 -72 32 -72 73c0 51 48 97 101 97c43 0 71 -33 71 -74c0 -52 -47 -96 -100 -96z" />
    <glyph glyph-name="slash" unicode="/" horiz-adv-x="452" 
d="M-5 -108l445 858h124l-445 -858h-124z" />
    <glyph glyph-name="zero" unicode="0" horiz-adv-x="576" 
d="M587 350c-38 -239 -124 -363 -300 -363c-175 0 -221 124 -183 363c37 238 123 363 298 363c176 0 222 -125 185 -363zM247 350c-24 -149 -24 -231 61 -231c86 0 112 82 136 231c23 148 23 231 -63 231c-85 0 -111 -83 -134 -231z" />
    <glyph glyph-name="one" unicode="1" horiz-adv-x="341" 
d="M147 536l-21 117l145 47h115l-117 -700h-139l94 561z" />
    <glyph glyph-name="two" unicode="2" horiz-adv-x="541" 
d="M42 0l9 56c35 218 385 318 385 456c0 43 -28 71 -77 71c-57 0 -93 -38 -113 -82l-121 36c28 70 102 176 254 176c119 0 204 -72 204 -180c0 -213 -309 -302 -353 -410h294l-21 -123h-461z" />
    <glyph glyph-name="three" unicode="3" horiz-adv-x="541" 
d="M270 -13c-152 0 -202 98 -208 172l127 38c7 -44 35 -81 95 -81c65 0 115 46 115 110c0 47 -33 81 -100 81h-77l18 109l167 160h-248l21 124h414l-21 -124l-171 -154c77 -11 143 -74 143 -171c0 -151 -122 -264 -275 -264z" />
    <glyph glyph-name="four" unicode="4" horiz-adv-x="588" 
d="M52 163l17 101l360 436h166l-70 -417h82l-20 -120h-82l-27 -163h-139l27 163h-314zM219 283h167l44 260z" />
    <glyph glyph-name="five" unicode="5" horiz-adv-x="541" 
d="M315 338c-42 0 -72 -22 -89 -38l-114 20l79 380h395l-21 -124h-270l-30 -143c34 17 68 24 104 24c106 0 186 -76 186 -187c0 -157 -121 -283 -278 -283c-150 0 -208 98 -215 172l128 38c5 -48 37 -81 96 -81c69 0 123 57 123 128c0 48 -28 94 -94 94z" />
    <glyph glyph-name="six" unicode="6" horiz-adv-x="562" 
d="M307 119c73 0 116 54 116 133c0 51 -26 88 -82 88c-41 0 -80 -22 -110 -55c-15 -87 -19 -166 76 -166zM446 713c81 0 130 -28 156 -46l-73 -114c-18 13 -49 28 -97 28c-117 0 -167 -98 -180 -160c24 18 79 45 141 45c105 0 172 -68 172 -186c0 -170 -114 -293 -276 -293
c-151 0 -208 95 -208 228c0 179 62 498 365 498z" />
    <glyph glyph-name="seven" unicode="7" horiz-adv-x="510" 
d="M142 700h462l-18 -107l-328 -593h-155l328 576h-310z" />
    <glyph glyph-name="eight" unicode="8" horiz-adv-x="564" 
d="M279 -13c-133 0 -212 72 -212 184c0 109 73 174 127 201c-26 19 -55 61 -55 119c0 123 109 222 263 222c122 0 196 -71 196 -170c0 -89 -61 -146 -105 -171c37 -22 73 -69 73 -138c0 -145 -122 -247 -287 -247zM333 302c-70 0 -120 -46 -120 -108c0 -45 30 -79 88 -79
c76 0 120 50 120 107c0 47 -33 80 -88 80zM380 586c-64 0 -101 -43 -101 -92c0 -41 28 -69 74 -69c57 0 102 39 102 93c0 38 -25 68 -75 68z" />
    <glyph glyph-name="nine" unicode="9" horiz-adv-x="562" 
d="M372 581c-73 0 -116 -54 -116 -133c0 -51 26 -88 82 -88c41 0 80 22 110 55c15 87 19 166 -76 166zM233 -13c-81 0 -130 28 -156 46l73 114c18 -13 49 -28 97 -28c117 0 167 98 180 160c-24 -18 -79 -45 -141 -45c-105 0 -172 68 -172 186c0 170 114 293 276 293
c151 0 208 -95 208 -228c0 -179 -62 -498 -365 -498z" />
    <glyph glyph-name="colon" unicode=":" horiz-adv-x="244" 
d="M120 -13c-43 0 -72 32 -72 73c0 51 48 97 101 97c43 0 71 -33 71 -74c0 -52 -47 -96 -100 -96zM180 342c-44 0 -73 32 -73 73c0 51 48 97 101 97c43 0 72 -33 72 -74c0 -52 -48 -96 -100 -96z" />
    <glyph glyph-name="semicolon" unicode=";" horiz-adv-x="244" 
d="M179 342c-43 0 -72 32 -72 73c0 51 47 97 100 97c43 0 72 -33 72 -74c0 -52 -47 -96 -100 -96zM25 -93c23 14 65 49 79 81c-38 9 -57 40 -57 72c0 51 48 97 100 97c42 0 74 -28 74 -76c0 -88 -70 -182 -149 -234z" />
    <glyph glyph-name="less" unicode="&#x3c;" horiz-adv-x="508" 
d="M89 262l17 100l449 189l-20 -123l-299 -118l260 -119l-21 -118z" />
    <glyph glyph-name="equal" unicode="=" horiz-adv-x="550" 
d="M94 347l18 110h478l-18 -110h-478zM62 157l19 111h478l-19 -111h-478z" />
    <glyph glyph-name="greater" unicode="&#x3e;" horiz-adv-x="508" 
d="M523 362l-16 -100l-450 -189l20 127l300 119l-260 118l20 114z" />
    <glyph glyph-name="question" unicode="?" horiz-adv-x="482" 
d="M186 199l8 49c23 142 205 168 205 273c0 34 -25 65 -73 65c-55 0 -84 -36 -99 -62l-108 49c28 55 102 140 230 140c117 0 194 -69 194 -167c0 -173 -199 -201 -217 -306l-7 -41h-133zM217 -13c-43 0 -72 32 -72 73c0 51 47 97 100 97c43 0 72 -33 72 -74
c0 -52 -47 -96 -100 -96z" />
    <glyph glyph-name="at" unicode="@" horiz-adv-x="905" 
d="M589 130c-15 -19 -64 -68 -142 -68c-98 0 -158 67 -158 164c0 130 101 230 220 230c61 0 90 -30 98 -40l6 34h103l-40 -237c-6 -39 5 -61 41 -61c58 0 105 81 105 197c0 150 -105 237 -266 237c-216 0 -377 -169 -377 -375c0 -158 104 -265 278 -265c70 0 141 20 197 50
l38 -75c-62 -38 -150 -66 -249 -66c-225 0 -370 141 -370 345c0 274 230 476 497 476c216 0 355 -135 355 -317c0 -176 -98 -297 -232 -297c-57 0 -92 28 -104 68zM401 242c0 -49 30 -84 75 -84c57 0 110 45 110 118c0 47 -28 83 -76 83c-58 0 -109 -49 -109 -117z" />
    <glyph glyph-name="A" unicode="A" horiz-adv-x="660" 
d="M481 180h-238l-91 -180h-144l365 700h148l131 -700h-140zM464 297l-40 252l-123 -252h163z" />
    <glyph glyph-name="B" unicode="B" horiz-adv-x="572" 
d="M67 0l117 700h222c125 0 202 -62 202 -159c0 -75 -48 -145 -112 -177c52 -24 83 -75 83 -134c0 -149 -134 -230 -277 -230h-235zM278 417h80c54 0 102 39 102 94c0 41 -30 67 -77 67h-78zM228 121h86c63 0 119 41 119 106c0 49 -37 76 -88 76h-86z" />
    <glyph glyph-name="C" unicode="C" horiz-adv-x="638" 
d="M393 -13c-194 0 -310 131 -310 307c0 233 197 419 432 419c93 0 157 -31 197 -64l-61 -124c-30 24 -87 56 -158 56c-143 0 -261 -119 -261 -269c0 -112 71 -193 183 -193c76 0 147 34 184 57l19 -123c-47 -31 -123 -66 -225 -66z" />
    <glyph glyph-name="D" unicode="D" horiz-adv-x="655" 
d="M67 0l117 700h186c202 0 319 -109 319 -289c0 -256 -175 -411 -436 -411h-186zM228 122h50c155 0 262 98 262 272c0 118 -70 183 -185 183h-50z" />
    <glyph glyph-name="E" unicode="E" horiz-adv-x="481" 
d="M67 0l117 700h360l-21 -127h-219l-26 -156h188l-21 -125h-188l-28 -166h228l-21 -126h-369z" />
    <glyph glyph-name="F" unicode="F" horiz-adv-x="470" 
d="M67 0l117 700h358l-21 -127h-217l-28 -165h190l-21 -126h-190l-47 -282h-141z" />
    <glyph glyph-name="G" unicode="G" horiz-adv-x="747" 
d="M513 713c147 0 227 -73 256 -116l-104 -92c-17 23 -68 77 -168 77c-155 0 -265 -124 -265 -271c0 -119 76 -192 187 -192c98 0 160 40 177 55l15 86h-133l20 119h265l-47 -277c-85 -64 -178 -115 -325 -115c-177 0 -308 120 -308 307c0 228 193 419 430 419z" />
    <glyph glyph-name="H" unicode="H" horiz-adv-x="707" 
d="M67 0l117 700h141l-47 -284h291l47 284h141l-117 -700h-141l48 289h-291l-48 -289h-141z" />
    <glyph glyph-name="I" unicode="I" horiz-adv-x="275" 
d="M67 0l117 700h141l-117 -700h-141z" />
    <glyph glyph-name="J" unicode="J" horiz-adv-x="374" 
d="M21 4l37 125c8 -1 31 -6 57 -6c48 0 76 29 84 76l84 501h140l-88 -526c-22 -130 -116 -180 -224 -180c-38 0 -63 4 -90 10z" />
    <glyph glyph-name="K" unicode="K" horiz-adv-x="615" 
d="M67 0l117 700h141l-53 -320l280 320h162l-303 -346l194 -354h-158l-182 340l-57 -340h-141z" />
    <glyph glyph-name="L" unicode="L" horiz-adv-x="455" 
d="M67 0l117 700h141l-96 -573h228l-21 -127h-369z" />
    <glyph glyph-name="M" unicode="M" horiz-adv-x="897" 
d="M365 700l120 -477l281 477h182l-117 -700h-135l84 500l-256 -441h-131l-108 441l-84 -500h-135l117 700h182z" />
    <glyph glyph-name="N" unicode="N" horiz-adv-x="713" 
d="M507 0l-222 476l-80 -476h-139l117 700h143l219 -480l80 480h139l-117 -700h-140z" />
    <glyph glyph-name="O" unicode="O" horiz-adv-x="788" 
d="M392 -13c-191 0 -309 132 -309 308c0 229 191 418 431 418c191 0 308 -134 308 -309c0 -230 -190 -417 -430 -417zM491 581c-141 0 -259 -119 -259 -269c0 -112 71 -193 182 -193c142 0 260 117 260 268c0 112 -71 194 -183 194z" />
    <glyph glyph-name="P" unicode="P" horiz-adv-x="542" 
d="M67 0l117 700h223c122 0 197 -72 197 -183c0 -148 -122 -256 -269 -256h-83l-44 -261h-141zM272 383h63c70 0 122 48 122 114c0 49 -35 81 -87 81h-65z" />
    <glyph glyph-name="Q" unicode="Q" horiz-adv-x="789" 
d="M392 -13c-191 0 -309 132 -309 308c0 229 191 418 431 418c191 0 308 -134 308 -309c0 -103 -40 -188 -104 -264l57 -61l-101 -95l-61 66c-65 -39 -140 -63 -221 -63zM491 581c-141 0 -259 -119 -259 -269c0 -112 71 -193 182 -193c39 0 76 9 109 26l-55 59l100 95
l58 -62c30 46 48 95 48 150c0 112 -71 194 -183 194z" />
    <glyph glyph-name="R" unicode="R" horiz-adv-x="585" 
d="M67 0l117 700h211c136 0 206 -78 206 -178c0 -97 -59 -174 -141 -215l115 -307h-156l-90 274h-75l-46 -274h-141zM274 393h66c57 0 113 38 113 109c0 47 -32 76 -89 76h-59z" />
    <glyph glyph-name="S" unicode="S" horiz-adv-x="521" 
d="M374 713c141 0 190 -102 199 -153l-121 -53c-10 33 -33 76 -94 76c-54 0 -88 -34 -88 -75c0 -101 255 -112 255 -294c0 -133 -96 -227 -260 -227c-150 0 -208 105 -218 162l125 58c11 -46 47 -89 110 -89c59 0 96 33 96 81c0 104 -252 106 -252 292c0 124 98 222 248 222
z" />
    <glyph glyph-name="T" unicode="T" horiz-adv-x="511" 
d="M185 0l96 573h-164l21 127h468l-21 -127h-163l-96 -573h-141z" />
    <glyph glyph-name="U" unicode="U" horiz-adv-x="692" 
d="M343 -13c-181 0 -263 111 -235 276l73 437h141l-73 -437c-15 -89 26 -145 116 -145s151 56 166 145l73 437h141l-73 -437c-28 -165 -148 -276 -329 -276z" />
    <glyph glyph-name="V" unicode="V" horiz-adv-x="680" 
d="M417 0h-153l-141 700h153l90 -534l268 534h157z" />
    <glyph glyph-name="W" unicode="W" horiz-adv-x="977" 
d="M620 0l-51 483l-213 -483h-159l-71 700h154l33 -524l227 524h130l51 -524l210 524h153l-304 -700h-160z" />
    <glyph glyph-name="X" unicode="X" horiz-adv-x="638" 
d="M477 0l-118 239l-188 -239h-166l289 369l-163 331h161l103 -219l168 219h174l-277 -351l168 -349h-151z" />
    <glyph glyph-name="Y" unicode="Y" horiz-adv-x="584" 
d="M222 0l53 320l-151 380h157l84 -251l168 251h161l-279 -380l-53 -320h-140z" />
    <glyph glyph-name="Z" unicode="Z" horiz-adv-x="603" 
d="M32 0l15 92l422 483h-331l21 125h522l-15 -92l-424 -483h346l-21 -125h-535z" />
    <glyph glyph-name="bracketleft" unicode="[" horiz-adv-x="332" 
d="M17 -166l162 966h223l-20 -119h-86l-122 -728h86l-20 -119h-223z" />
    <glyph glyph-name="backslash" unicode="\" horiz-adv-x="452" 
d="M264 750l157 -858h-125l-157 858h125z" />
    <glyph glyph-name="bracketright" unicode="]" horiz-adv-x="334" 
d="M421 800l-162 -966h-223l20 119h86l122 728h-86l20 119h223z" />
    <glyph glyph-name="asciicircum" unicode="^" horiz-adv-x="557" 
d="M92 318l247 382h113l119 -382h-125l-69 248l-153 -248h-132z" />
    <glyph glyph-name="underscore" unicode="_" horiz-adv-x="614" 
d="M19 -29h565l-18 -108h-565z" />
    <glyph glyph-name="grave" unicode="`" horiz-adv-x="483" 
d="M401 725l43 -144h-111l-78 144h146z" />
    <glyph glyph-name="a" unicode="a" horiz-adv-x="526" 
d="M48 137c0 116 100 198 235 198c53 0 91 -16 108 -29l6 34c8 46 -21 77 -82 77c-52 0 -103 -17 -145 -37l-37 94c53 32 137 62 217 62c168 0 203 -88 183 -205l-55 -331h-122l-3 34c-32 -29 -75 -47 -135 -47c-96 0 -170 56 -170 150zM189 157c0 -38 32 -63 80 -63
c57 0 103 32 103 82c0 40 -32 63 -80 63c-58 0 -103 -35 -103 -82z" />
    <glyph glyph-name="b" unicode="b" horiz-adv-x="620" 
d="M54 0l121 723h138l-43 -255c16 18 77 68 167 68c130 0 207 -92 207 -225c0 -187 -138 -324 -307 -324c-89 0 -133 50 -144 67l-9 -54h-130zM229 234c0 -70 38 -125 111 -125c89 0 163 72 163 180c0 74 -42 125 -112 125c-87 0 -162 -70 -162 -180z" />
    <glyph glyph-name="c" unicode="c" horiz-adv-x="490" 
d="M330 109c53 0 100 28 126 47l21 -113c-34 -24 -94 -56 -175 -56c-145 0 -238 96 -238 231c0 180 152 318 329 318c77 0 126 -30 155 -56l-57 -116c-20 21 -56 50 -115 50c-100 0 -172 -83 -172 -177c0 -75 49 -128 126 -128z" />
    <glyph glyph-name="d" unicode="d" horiz-adv-x="620" 
d="M687 723l-121 -723h-130l9 54c-17 -17 -77 -67 -166 -67c-132 0 -215 93 -215 228c0 181 127 321 299 321c90 0 134 -50 144 -68l42 255h138zM479 290c0 78 -45 124 -112 124c-91 0 -162 -78 -162 -182c0 -76 43 -123 111 -123c96 0 163 84 163 181z" />
    <glyph glyph-name="e" unicode="e" horiz-adv-x="559" 
d="M65 216c0 178 137 320 305 320c139 0 215 -86 215 -223c0 -37 -9 -76 -12 -86h-368c-9 -70 37 -120 114 -120c71 0 119 42 138 64l83 -69c-26 -37 -111 -115 -241 -115c-148 0 -234 97 -234 229zM224 317h225c8 64 -31 106 -94 106c-65 0 -115 -46 -131 -106z" />
    <glyph glyph-name="f" unicode="f" horiz-adv-x="326" 
d="M78 0l69 411h-56l19 112h56l3 19c22 136 121 181 223 181c20 0 35 -1 45 -2l-20 -116c-3 0 -14 2 -26 2c-48 0 -77 -22 -85 -68l-3 -16h92l-19 -112h-91l-69 -411h-138z" />
    <glyph glyph-name="g" unicode="g" horiz-adv-x="615" 
d="M68 -144l60 106c16 -9 71 -36 143 -36c75 0 148 23 162 104l4 24c-14 -15 -74 -67 -165 -67c-132 0 -209 92 -209 225c0 186 138 324 306 324c88 0 133 -48 145 -68l9 55h130l-76 -457c-33 -195 -171 -258 -325 -258c-72 0 -141 22 -184 48zM478 289
c0 74 -42 125 -112 125c-89 0 -162 -74 -162 -180c0 -75 44 -125 112 -125c92 0 162 75 162 180z" />
    <glyph glyph-name="h" unicode="h" horiz-adv-x="562" 
d="M420 536c150 0 161 -123 142 -234l-51 -302h-137l53 318c10 58 -24 94 -71 94c-58 0 -102 -42 -111 -98l-53 -314h-138l121 723h138l-44 -261c28 36 83 74 151 74z" />
    <glyph glyph-name="i" unicode="i" 
d="M54 0l88 523h138l-88 -523h-138zM149 638c0 50 45 90 95 90c41 0 69 -29 69 -68c0 -50 -45 -90 -96 -90c-40 0 -68 29 -68 68z" />
    <glyph glyph-name="j" unicode="j" 
d="M53 -1l88 524h138l-89 -530c-23 -138 -117 -184 -230 -184c-16 0 -34 2 -34 2l20 117s13 -2 23 -2c50 0 77 26 84 73zM149 638c0 50 44 90 94 90c41 0 69 -29 69 -68c0 -50 -44 -90 -95 -90c-40 0 -68 29 -68 68z" />
    <glyph glyph-name="k" unicode="k" horiz-adv-x="532" 
d="M54 0l121 723h138l-70 -420l205 220h155l-224 -240l150 -283h-158l-134 270l-45 -270h-138z" />
    <glyph glyph-name="l" unicode="l" 
d="M54 0l121 723h138l-121 -723h-138z" />
    <glyph glyph-name="m" unicode="m" horiz-adv-x="851" 
d="M859 345l-58 -345h-138l52 313c10 62 -14 99 -65 99c-50 0 -91 -37 -102 -100l-52 -312h-138l53 318c10 59 -14 94 -65 94c-49 0 -92 -37 -102 -99l-52 -313h-138l88 523h135l-11 -61c25 36 78 74 149 74c67 0 111 -30 130 -78c39 48 98 78 168 78
c119 0 164 -79 146 -191z" />
    <glyph glyph-name="n" unicode="n" horiz-adv-x="560" 
d="M419 536c149 0 161 -123 142 -234l-51 -302h-138l53 318c10 58 -24 94 -71 94c-57 0 -100 -42 -109 -98l-53 -314h-138l88 523h135l-11 -61c28 36 85 74 153 74z" />
    <glyph glyph-name="o" unicode="o" horiz-adv-x="613" 
d="M64 219c0 179 155 317 332 317c143 0 240 -100 240 -236c0 -177 -149 -313 -332 -313c-145 0 -240 97 -240 232zM204 235c0 -74 48 -126 120 -126c94 0 172 75 172 176c0 75 -48 129 -121 129c-93 0 -171 -77 -171 -179z" />
    <glyph glyph-name="p" unicode="p" horiz-adv-x="621" 
d="M23 -187l119 710h130l-9 -55c17 18 77 68 166 68c132 0 215 -94 215 -228c0 -181 -127 -321 -299 -321c-90 0 -134 50 -144 67l-40 -241h-138zM229 233c0 -78 45 -124 112 -124c91 0 162 78 162 182c0 76 -43 123 -111 123c-96 0 -163 -84 -163 -181z" />
    <glyph glyph-name="q" unicode="q" horiz-adv-x="621" 
d="M654 523l-119 -710h-138l40 241c-15 -17 -76 -67 -166 -67c-130 0 -207 92 -207 225c0 186 138 324 307 324c89 0 133 -50 144 -68l9 55h130zM479 289c0 70 -39 125 -111 125c-90 0 -163 -72 -163 -180c0 -74 43 -125 112 -125c88 0 162 70 162 180z" />
    <glyph glyph-name="r" unicode="r" horiz-adv-x="360" 
d="M423 536l-24 -140c-103 0 -152 -64 -169 -168l-38 -228h-138l88 523h135l-13 -76c32 52 90 89 159 89z" />
    <glyph glyph-name="s" unicode="s" horiz-adv-x="435" 
d="M212 -13c-103 0 -159 52 -179 97l93 72c21 -30 52 -57 111 -57c43 0 72 20 72 52c0 69 -211 51 -211 205c0 113 101 180 219 180c99 0 145 -52 163 -93l-102 -68c-13 20 -37 50 -86 50c-35 0 -62 -19 -62 -47c0 -72 213 -46 213 -200c0 -117 -107 -191 -231 -191z" />
    <glyph glyph-name="t" unicode="t" horiz-adv-x="333" 
d="M155 523l18 110h136l-18 -110h98l-19 -112h-98l-34 -202c-13 -78 9 -94 62 -94c9 0 14 0 25 1l-20 -118s-22 -5 -60 -5c-125 0 -168 70 -144 212l34 206h-55l19 112h56z" />
    <glyph glyph-name="u" unicode="u" horiz-adv-x="556" 
d="M228 -13c-149 0 -160 123 -141 234l51 302h137l-53 -318c-10 -58 24 -94 71 -94c57 0 101 42 110 98l53 314h137l-87 -523h-135l10 61c-28 -36 -85 -74 -153 -74z" />
    <glyph glyph-name="v" unicode="v" horiz-adv-x="542" 
d="M351 0h-160l-99 523h147l57 -376l183 376h147z" />
    <glyph glyph-name="w" unicode="w" horiz-adv-x="828" 
d="M510 0l-39 335l-154 -335h-154l-68 523h150l30 -371l162 371h130l37 -371l155 371h150l-245 -523h-154z" />
    <glyph glyph-name="x" unicode="x" horiz-adv-x="532" 
d="M379 0l-81 162l-139 -162h-154l229 267l-133 256h153l72 -154l121 154h160l-219 -256l139 -267h-148z" />
    <glyph glyph-name="y" unicode="y" horiz-adv-x="540" 
d="M237 -179h-132l105 192l-116 510h147l60 -341l174 341h146z" />
    <glyph glyph-name="z" unicode="z" horiz-adv-x="468" 
d="M508 437l-290 -322h239l-19 -115h-410l14 85l290 323h-229l20 115h400z" />
    <glyph glyph-name="braceleft" unicode="{" horiz-adv-x="388" 
d="M211 317c18 -4 72 -38 57 -130l-25 -149c-9 -51 9 -85 73 -85l-20 -119c-153 0 -211 75 -188 212l18 108c13 80 -20 99 -56 99l22 129c38 0 76 19 89 99l18 107c23 137 106 212 259 212l-20 -119c-64 0 -94 -34 -102 -85l-24 -148c-15 -93 -81 -126 -101 -131z" />
    <glyph glyph-name="bar" unicode="|" horiz-adv-x="282" 
d="M37 -235l177 1059h130l-177 -1059h-130z" />
    <glyph glyph-name="braceright" unicode="}" horiz-adv-x="388" 
d="M283 317c-18 5 -72 38 -57 131l24 148c9 51 -8 85 -72 85l20 119c153 0 210 -75 187 -212l-18 -107c-13 -80 19 -99 57 -99l-22 -129c-36 0 -75 -19 -89 -99l-19 -108c-24 -137 -105 -212 -258 -212l20 119c64 0 92 34 101 85l25 149c15 92 81 126 101 130z" />
    <glyph glyph-name="asciitilde" unicode="~" horiz-adv-x="546" 
d="M402 217c-75 0 -110 51 -167 51c-32 0 -51 -23 -56 -52h-112c17 104 84 177 179 177c71 0 115 -51 165 -51c32 0 51 22 57 51h112c-17 -97 -82 -176 -178 -176z" />
    <glyph glyph-name="exclamdown" unicode="&#xa1;" horiz-adv-x="292" 
d="M47 -153l95 501h124l-73 -501h-146zM239 560c43 0 72 -32 72 -73c0 -51 -47 -97 -100 -97c-43 0 -72 33 -72 74c0 52 47 96 100 96z" />
    <glyph glyph-name="sterling" unicode="&#xa3;" horiz-adv-x="573" 
d="M91 292l18 106h51l17 102c21 124 120 213 255 213c129 0 175 -90 182 -146l-123 -49c-6 26 -23 60 -77 60c-49 0 -91 -35 -99 -85l-16 -95h156l-18 -106h-155l-28 -169h302l-21 -123h-500l21 123h58l28 169h-51z" />
    <glyph glyph-name="dieresis" unicode="&#xa8;" horiz-adv-x="483" 
d="M243 585c-36 0 -58 25 -58 58c0 42 37 78 81 78c35 0 57 -26 57 -59c0 -42 -37 -77 -80 -77zM435 585c-36 0 -58 25 -58 58c0 41 35 78 81 78c35 0 57 -26 57 -59c0 -42 -37 -77 -80 -77z" />
    <glyph glyph-name="copyright" unicode="&#xa9;" horiz-adv-x="790" 
d="M407 69c179 0 319 144 319 326c0 135 -85 234 -226 234c-178 0 -319 -143 -319 -325c0 -136 86 -235 226 -235zM271 318c0 122 95 223 218 223c83 0 120 -48 135 -76l-81 -59c-8 15 -28 40 -69 40c-60 0 -98 -53 -98 -117c0 -45 22 -77 65 -77c41 0 68 25 81 40l63 -58
c-24 -29 -77 -77 -160 -77c-96 0 -154 70 -154 161zM510 713c186 0 308 -134 308 -310c0 -229 -189 -417 -420 -417c-185 0 -310 134 -310 309c0 228 192 418 422 418z" />
    <glyph glyph-name="ordfeminine" unicode="&#xaa;" horiz-adv-x="411" 
d="M104 412c0 89 74 150 176 150c38 0 68 -12 81 -20l4 23c6 34 -16 56 -61 56c-39 0 -74 -12 -107 -28l-35 72c41 25 102 48 169 48c125 0 152 -67 137 -156l-42 -248h-92l-3 24c-24 -20 -56 -33 -100 -33c-72 0 -127 41 -127 112zM210 428c0 -28 24 -46 60 -46
c42 0 77 23 77 60c0 29 -24 46 -59 46c-44 0 -78 -25 -78 -60z" />
    <glyph glyph-name="guillemotleft" unicode="&#xab;" horiz-adv-x="490" 
d="M168 106l-91 187l147 188h129l-152 -193l90 -182h-123zM356 106l-91 187l147 188h129l-152 -193l90 -182h-123z" />
    <glyph glyph-name="registered" unicode="&#xae;" horiz-adv-x="452" 
d="M312 503h-21l-12 -75h-59l36 216h88c44 0 67 -28 67 -61c0 -34 -24 -59 -45 -68l26 -87h-61zM330 594h-24l-7 -43h24c14 0 26 11 26 25c0 11 -8 18 -19 18zM102 503c0 130 103 239 241 239c115 0 186 -76 186 -175c0 -127 -100 -239 -243 -239c-113 0 -184 75 -184 175z
M159 509c0 -75 46 -130 130 -130c111 0 183 81 183 183c0 76 -47 128 -133 128c-106 0 -180 -79 -180 -181z" />
    <glyph glyph-name="macron" unicode="&#xaf;" horiz-adv-x="445" 
d="M189 603l17 101h268l-17 -101h-268z" />
    <glyph glyph-name="degree" unicode="&#xb0;" horiz-adv-x="378" 
d="M255 398c-85 0 -138 58 -138 133c0 100 87 182 191 182c84 0 137 -59 137 -135c0 -99 -84 -180 -190 -180zM292 619c-43 0 -75 -34 -75 -74c0 -32 20 -54 54 -54c47 0 75 34 75 74c0 31 -20 54 -54 54z" />
    <glyph glyph-name="twosuperior" unicode="&#xb2;" horiz-adv-x="360" 
d="M88 303l7 42c20 123 219 167 219 236c0 20 -13 34 -38 34c-34 0 -53 -24 -64 -45l-80 30c23 47 67 108 159 108c73 0 131 -43 131 -110c0 -120 -171 -154 -203 -209h175l-14 -86h-292z" />
    <glyph glyph-name="threesuperior" unicode="&#xb3;" horiz-adv-x="357" 
d="M430 700l-12 -68l-103 -89c48 -8 85 -43 85 -97c0 -98 -80 -151 -171 -151c-93 0 -125 65 -131 107c29 11 58 20 87 31c6 -22 18 -46 52 -46c32 0 57 21 57 53c0 26 -19 40 -50 40h-45l11 68l76 66h-135l15 86h264z" />
    <glyph glyph-name="acute" unicode="&#xb4;" horiz-adv-x="483" 
d="M232 581l91 144h145l-121 -144h-115z" />
    <glyph glyph-name="paragraph" unicode="&#xb6;" horiz-adv-x="545" 
d="M217 -45l61 368c-94 1 -159 70 -159 162c0 120 105 215 223 215h106l-124 -745h-107zM384 -45l124 745h107l-124 -745h-107z" />
    <glyph glyph-name="periodcentered" unicode="&#xb7;" horiz-adv-x="249" 
d="M162 229c-43 0 -72 32 -72 73c0 51 48 97 101 97c43 0 71 -33 71 -74c0 -52 -47 -96 -100 -96z" />
    <glyph glyph-name="cedilla" unicode="&#xb8;" horiz-adv-x="445" 
d="M151 -233c-20 0 -47 6 -56 9l28 71c6 -2 19 -5 32 -5c25 0 49 12 49 37c0 19 -22 27 -45 27c-8 0 -18 -2 -18 -2l34 108h72l-16 -51c41 -9 62 -41 62 -78c0 -73 -66 -116 -142 -116z" />
    <glyph glyph-name="onesuperior" unicode="&#xb9;" horiz-adv-x="286" 
d="M164 582l-14 88l94 30h86l-66 -397h-104l49 295z" />
    <glyph glyph-name="ordmasculine" unicode="&#xba;" horiz-adv-x="480" 
d="M109 474c0 135 116 239 250 239c111 0 180 -74 180 -176c0 -133 -114 -237 -250 -237c-109 0 -180 73 -180 174zM217 486c0 -55 34 -93 88 -93c70 0 128 58 128 132c0 56 -36 94 -90 94c-70 0 -126 -57 -126 -133z" />
    <glyph glyph-name="guillemotright" unicode="&#xbb;" horiz-adv-x="490" 
d="M419 481l91 -187l-147 -188h-129l152 193l-90 182h123zM231 481l91 -187l-147 -188h-129l152 193l-90 182h123z" />
    <glyph glyph-name="onequarter" unicode="&#xbc;" horiz-adv-x="831" 
d="M654 0l12 73h-185l13 77l216 247h114l-39 -236h44l-15 -88h-44l-12 -73h-104zM594 161h87l21 128zM273 -41h-120l505 782h121zM173 582l-14 88l94 30h86l-66 -397h-104l49 295z" />
    <glyph glyph-name="onehalf" unicode="&#xbd;" horiz-adv-x="843" 
d="M173 582l-14 88l94 30h86l-66 -397h-104l49 295zM257 -41h-120l505 782h121zM507 0l7 42c20 123 219 167 219 236c0 20 -13 34 -38 34c-34 0 -53 -24 -64 -45l-80 30c23 47 67 108 159 108c73 0 131 -43 131 -110c0 -120 -171 -154 -203 -209h175l-14 -86h-292z" />
    <glyph glyph-name="threequarters" unicode="&#xbe;" horiz-adv-x="876" 
d="M691 0l12 73h-185l13 77l216 247h114l-39 -236h44l-15 -88h-44l-12 -73h-104zM631 161h87l21 128zM435 700l-12 -68l-103 -89c48 -8 85 -43 85 -97c0 -98 -80 -151 -171 -151c-93 0 -125 65 -131 107c29 11 58 20 87 31c6 -22 18 -46 52 -46c32 0 57 21 57 53
c0 26 -19 40 -50 40h-45l11 68l76 66h-135l15 86h264zM319 -41h-120l505 782h121z" />
    <glyph glyph-name="questiondown" unicode="&#xbf;" horiz-adv-x="482" 
d="M388 348l-8 -49c-23 -142 -205 -168 -205 -273c0 -34 25 -65 73 -65c55 0 84 36 99 62l108 -49c-28 -55 -102 -140 -230 -140c-117 0 -194 69 -194 167c0 173 199 201 217 306l7 41h133zM357 560c43 0 72 -32 72 -73c0 -51 -47 -97 -100 -97c-43 0 -72 33 -72 74
c0 52 47 96 100 96z" />
    <glyph glyph-name="AE" unicode="&#xc6;" horiz-adv-x="857" 
d="M8 0l474 700h438l-21 -127h-218l-26 -156h187l-21 -125h-187l-28 -166h227l-21 -126h-368l30 180h-193l-120 -180h-153zM529 563l-176 -266h141l44 266h-9z" />
    <glyph glyph-name="Eth" unicode="&#xd0;" horiz-adv-x="666" 
d="M71 290l21 124h56l48 286h185c202 0 320 -122 320 -289c0 -256 -169 -411 -430 -411h-193l49 290h-56zM240 122h50c153 0 262 97 262 272c0 118 -71 183 -186 183h-50l-27 -163h109l-21 -124h-109z" />
    <glyph glyph-name="multiply" unicode="&#xd7;" horiz-adv-x="529" 
d="M238 317l-122 158l88 76l121 -156l177 159l71 -81l-182 -163l127 -163l-88 -76l-125 161l-182 -163l-71 81z" />
    <glyph glyph-name="Thorn" unicode="&#xde;" horiz-adv-x="542" 
d="M67 0l117 700h141l-20 -123h82c121 0 197 -80 197 -183c0 -148 -123 -256 -270 -256h-83l-23 -138h-141zM252 260h63c69 0 122 48 122 114c0 49 -35 81 -88 81h-65z" />
    <glyph glyph-name="germandbls" unicode="&#xdf;" horiz-adv-x="560" 
d="M382 723c118 0 191 -61 191 -140c0 -76 -51 -127 -87 -145c51 -27 94 -78 94 -163c0 -166 -137 -275 -328 -275l19 116c100 0 170 56 170 146c0 71 -57 103 -128 103l18 110c62 0 103 30 103 77c0 29 -22 55 -66 55c-48 0 -79 -27 -87 -73l-89 -534h-138l91 542
c22 133 125 181 237 181z" />
    <glyph glyph-name="eth" unicode="&#xf0;" horiz-adv-x="588" 
d="M63 210c0 172 142 290 294 290c20 0 45 -4 57 -8c-11 25 -30 51 -50 67l-170 -59l2 87l99 36c-25 20 -50 36 -78 52l91 69c43 -20 90 -50 127 -77l140 50l-2 -90l-74 -26c68 -72 112 -168 112 -273c0 -167 -105 -341 -323 -341c-144 0 -225 99 -225 223zM202 225
c0 -65 37 -117 105 -117c104 0 159 83 159 167c0 61 -39 112 -106 112c-97 0 -158 -75 -158 -162z" />
    <glyph glyph-name="divide" unicode="&#xf7;" horiz-adv-x="551" 
d="M347 431c-36 0 -60 27 -60 61c0 43 40 82 84 82c36 0 61 -28 61 -63c0 -43 -41 -80 -85 -80zM283 49c-36 0 -60 28 -60 62c0 43 40 81 84 81c36 0 61 -27 61 -62c0 -43 -41 -81 -85 -81zM80 256l19 111h477l-19 -111h-477z" />
    <glyph glyph-name="thorn" unicode="&#xfe;" horiz-adv-x="621" 
d="M23 -187l152 910h138l-41 -247c22 20 77 60 157 60c132 0 215 -94 215 -228c0 -181 -127 -321 -299 -321c-90 0 -134 50 -144 67l-40 -241h-138zM229 233c0 -78 45 -124 112 -124c91 0 162 78 162 182c0 75 -43 123 -111 123c-96 0 -163 -84 -163 -181z" />
    <glyph glyph-name="Dcroat" unicode="&#x110;" horiz-adv-x="665" 
d="M71 290l21 124h56l48 286h185c202 0 320 -122 320 -289c0 -256 -169 -411 -430 -411h-193l49 290h-56zM240 122h50c153 0 262 97 262 272c0 118 -71 183 -186 183h-50l-27 -163h109l-21 -124h-109z" />
    <glyph glyph-name="dotlessi" unicode="&#x131;" 
d="M54 0l88 523h138l-88 -523h-138z" />
    <glyph glyph-name="florin" unicode="&#x192;" horiz-adv-x="476" 
d="M305 323l-63 -327c-29 -148 -122 -188 -217 -188c-24 0 -52 4 -63 6l23 115c9 -2 21 -4 35 -4c58 0 76 26 92 106l57 292h-59l7 112h74l19 99c26 137 128 177 216 177c37 0 63 -6 63 -6l-22 -115c-7 2 -19 4 -35 4c-43 0 -76 -18 -87 -74l-17 -85h87l-7 -112h-103z" />
    <glyph glyph-name="circumflex" unicode="&#x2c6;" horiz-adv-x="445" 
d="M370 584l-37 71l-61 -71h-118l118 140h142l72 -140h-116z" />
    <glyph glyph-name="caron" unicode="&#x2c7;" horiz-adv-x="445" 
d="M327 653l61 71h121l-118 -140h-142l-72 140h113z" />
    <glyph glyph-name="breve" unicode="&#x2d8;" horiz-adv-x="445" 
d="M318 581c-96 0 -141 60 -127 143h96c-5 -31 1 -62 42 -62c42 0 58 31 63 62h102c-14 -83 -78 -143 -176 -143z" />
    <glyph glyph-name="dotaccent" unicode="&#x2d9;" horiz-adv-x="445" 
d="M249 638c0 50 45 90 95 90c41 0 69 -29 69 -68c0 -50 -45 -90 -96 -90c-40 0 -68 29 -68 68z" />
    <glyph glyph-name="ring" unicode="&#x2da;" horiz-adv-x="445" 
d="M315 564c-53 0 -91 35 -91 85c0 66 58 113 125 113c55 0 93 -34 93 -84c0 -66 -58 -114 -127 -114zM326 624c27 0 46 20 46 46c0 19 -12 32 -33 32c-26 0 -45 -19 -45 -46c0 -19 12 -32 32 -32z" />
    <glyph glyph-name="ogonek" unicode="&#x2db;" horiz-adv-x="445" 
d="M118 -124c0 66 61 109 97 124h92c-14 -5 -66 -28 -66 -69c0 -23 23 -35 45 -35l-16 -98c-7 -2 -23 -4 -36 -4c-56 0 -116 17 -116 82z" />
    <glyph glyph-name="tilde" unicode="&#x2dc;" horiz-adv-x="445" 
d="M388 587c-53 0 -85 37 -119 37c-20 0 -34 -14 -38 -38h-88c13 80 65 134 133 134c55 0 85 -37 117 -37c20 0 35 15 39 38h88c-14 -82 -65 -134 -132 -134z" />
    <glyph glyph-name="hungarumlaut" unicode="&#x2dd;" horiz-adv-x="465" 
d="M316 581l92 144h132l-120 -144h-104zM142 581l91 144h133l-121 -144h-103z" />
    <glyph glyph-name="endash" unicode="&#x2013;" horiz-adv-x="648" 
d="M87 251l19 113h558l-19 -113h-558z" />
    <glyph glyph-name="emdash" unicode="&#x2014;" horiz-adv-x="918" 
d="M87 251l19 113h827l-19 -113h-827z" />
    <glyph glyph-name="quoteleft" unicode="&#x2018;" horiz-adv-x="225" 
d="M306 672c-23 -14 -65 -49 -79 -81c38 -9 57 -40 57 -72c0 -51 -48 -97 -100 -97c-42 0 -74 28 -74 76c0 88 70 182 149 234z" />
    <glyph glyph-name="quoteright" unicode="&#x2019;" horiz-adv-x="225" 
d="M111 482c23 14 65 49 79 81c-38 9 -57 40 -57 72c0 51 48 97 100 97c42 0 74 -28 74 -76c0 -88 -70 -182 -149 -234z" />
    <glyph glyph-name="quotesinglbase" unicode="&#x201a;" horiz-adv-x="244" 
d="M25 -93c23 14 65 49 79 81c-38 9 -57 40 -57 72c0 51 48 97 100 97c42 0 74 -28 74 -76c0 -88 -70 -182 -149 -234z" />
    <glyph glyph-name="quotedblleft" unicode="&#x201c;" horiz-adv-x="425" 
d="M306 672c-23 -14 -65 -49 -79 -81c38 -9 57 -40 57 -72c0 -51 -48 -97 -100 -97c-42 0 -74 28 -74 76c0 88 70 182 149 234zM506 672c-23 -14 -65 -49 -79 -81c38 -9 57 -40 57 -72c0 -51 -48 -97 -100 -97c-42 0 -74 28 -74 76c0 88 70 182 149 234z" />
    <glyph glyph-name="quotedblright" unicode="&#x201d;" horiz-adv-x="425" 
d="M311 482c23 14 65 49 79 81c-38 9 -57 40 -57 72c0 51 48 97 100 97c42 0 74 -28 74 -76c0 -88 -70 -182 -149 -234zM111 482c23 14 65 49 79 81c-38 9 -57 40 -57 72c0 51 48 97 100 97c42 0 74 -28 74 -76c0 -88 -70 -182 -149 -234z" />
    <glyph glyph-name="quotedblbase" unicode="&#x201e;" horiz-adv-x="425" 
d="M14 -93c23 14 65 49 79 81c-38 9 -57 40 -57 72c0 51 48 97 100 97c42 0 74 -28 74 -76c0 -88 -70 -182 -149 -234zM214 -93c23 14 65 49 79 81c-38 9 -57 40 -57 72c0 51 48 97 100 97c42 0 74 -28 74 -76c0 -88 -70 -182 -149 -234z" />
    <glyph glyph-name="dagger" unicode="&#x2020;" horiz-adv-x="425" 
d="M144 0l70 416h-117l20 120h117l28 164h135l-28 -164h119l-20 -120h-119l-70 -416h-135z" />
    <glyph glyph-name="daggerdbl" unicode="&#x2021;" horiz-adv-x="424" 
d="M446 288l-20 -119h-117l-28 -169h-135l28 169h-119l20 119h119l20 122h-119l20 120h119l29 170h135l-29 -170h117l-20 -120h-117l-20 -122h117z" />
    <glyph glyph-name="bullet" unicode="&#x2022;" horiz-adv-x="406" 
d="M226 138c-89 0 -146 65 -146 147c0 107 93 197 203 197c88 0 146 -65 146 -147c0 -107 -93 -197 -203 -197z" />
    <glyph glyph-name="perthousand" unicode="&#x2030;" horiz-adv-x="1191" 
d="M70 0l647 700h134l-647 -700h-134zM462 569c0 -102 -92 -190 -201 -190c-87 0 -144 64 -144 144c0 102 92 190 200 190c88 0 145 -64 145 -144zM223 536c0 -31 20 -57 55 -57c45 0 77 37 77 77c0 31 -19 57 -54 57c-45 0 -78 -37 -78 -77zM803 175
c0 -102 -93 -190 -201 -190c-88 0 -144 64 -144 144c0 102 92 190 200 190c88 0 145 -64 145 -144zM564 142c0 -31 20 -57 55 -57c45 0 77 37 77 77c0 31 -19 57 -54 57c-45 0 -78 -37 -78 -77zM1191 175c0 -102 -93 -190 -201 -190c-88 0 -144 64 -144 144
c0 102 92 190 200 190c88 0 145 -64 145 -144zM952 142c0 -31 20 -57 55 -57c45 0 77 37 77 77c0 31 -19 57 -54 57c-45 0 -78 -37 -78 -77z" />
    <glyph glyph-name="guilsinglleft" unicode="&#x2039;" horiz-adv-x="302" 
d="M168 106l-91 187l147 188h129l-152 -193l90 -182h-123z" />
    <glyph glyph-name="guilsinglright" unicode="&#x203a;" horiz-adv-x="302" 
d="M231 481l91 -187l-147 -188h-129l152 193l-90 182h123z" />
    <glyph glyph-name="fraction" unicode="&#x2044;" horiz-adv-x="460" 
d="M97 -41h-122l505 782h123z" />
    <glyph glyph-name="Euro" unicode="&#x20ac;" horiz-adv-x="645" 
d="M63 231l15 91h50c1 17 5 41 10 61h-50l16 92h68c63 136 199 238 364 238c80 0 136 -20 171 -45l-71 -115c-23 14 -60 31 -117 31c-80 0 -153 -43 -193 -109h221l-25 -92h-236c-6 -18 -10 -46 -10 -61h231l-24 -91h-194c19 -67 76 -111 159 -111c55 0 105 19 128 33
l37 -114c-29 -23 -103 -52 -187 -52c-173 0 -278 103 -296 244h-67z" />
    <glyph glyph-name="trademark" unicode="&#x2122;" horiz-adv-x="777" 
d="M177 339l46 276h-88l14 85h269l-14 -85h-87l-46 -276h-94zM647 379h-86l-43 170l-35 -210h-91l60 361h119l50 -212l121 212h120l-60 -361h-91l35 210z" />
    <glyph glyph-name="minus" unicode="&#x2212;" horiz-adv-x="550" 
d="M79 256l19 111h478l-19 -111h-478z" />
    <glyph glyph-name="quotedbl" unicode="&#x22;" horiz-adv-x="370" 
d="M124 462l35 238h112l-45 -238h-102zM297 462l35 238h112l-46 -238h-101z" />
    <glyph glyph-name="exclam" unicode="!" horiz-adv-x="292" 
d="M118 199l72 501h146l-94 -501h-124zM144 -13c-43 0 -72 32 -72 73c0 51 48 97 101 97c43 0 71 -33 71 -74c0 -52 -47 -96 -100 -96z" />
    <glyph glyph-name="ampersand" unicode="&#x26;" horiz-adv-x="655" 
d="M540 -20l-56 72c-48 -36 -119 -65 -201 -65c-147 0 -226 77 -226 184c0 103 59 169 153 226c-19 28 -38 65 -38 112c0 110 96 204 237 204c118 0 180 -65 180 -156c0 -101 -71 -165 -163 -216l87 -100c19 29 27 54 34 94h129c-12 -70 -36 -133 -86 -194l58 -73zM306 111
c43 0 82 18 104 37l-133 159c-46 -21 -77 -62 -77 -109c0 -57 49 -87 106 -87zM299 513c0 -38 26 -70 58 -99c59 32 106 72 106 123c0 37 -26 65 -71 65c-51 0 -93 -39 -93 -89z" />
    <glyph glyph-name="section" unicode="&#xa7;" horiz-adv-x="511" 
d="M519 258c0 -71 -44 -126 -112 -156c32 -29 55 -67 55 -118c0 -118 -94 -207 -237 -207c-140 0 -194 98 -203 149l121 50c10 -32 40 -72 98 -72c46 0 79 26 79 67c0 30 -21 50 -54 72l-112 75c-46 30 -77 72 -77 132c0 73 46 128 110 157c-31 29 -53 67 -53 118
c0 118 94 208 238 208c140 0 191 -99 201 -150l-119 -50c-10 33 -41 73 -98 73c-45 0 -80 -29 -80 -68c0 -30 21 -51 53 -72l103 -68c52 -34 87 -78 87 -140zM388 240c0 22 -13 39 -32 50l-75 45c-44 -1 -73 -32 -73 -66c0 -20 9 -34 23 -43l84 -52c43 1 73 32 73 66z" />
    <glyph glyph-name="commaaccent" unicode="&#xf6c3;" horiz-adv-x="292" 
d="M35 -240c20 14 49 39 64 65c-33 7 -48 35 -48 62c0 46 43 84 88 84c40 0 66 -28 66 -71c0 -72 -56 -147 -127 -191z" />
    <glyph glyph-name="aacute" unicode="&#xe1;" horiz-adv-x="526" 
d="M48 137c0 116 100 198 235 198c53 0 91 -16 108 -29l6 34c8 46 -21 77 -82 77c-52 0 -103 -17 -145 -37l-37 94c53 32 137 62 217 62c168 0 203 -88 183 -205l-55 -331h-122l-3 34c-32 -29 -75 -47 -135 -47c-96 0 -170 56 -170 150zM189 157c0 -38 32 -63 80 -63
c57 0 103 32 103 82c0 40 -32 63 -80 63c-58 0 -103 -35 -103 -82zM292 581l91 144h145l-121 -144h-115z" />
    <glyph glyph-name="aring" unicode="&#xe5;" horiz-adv-x="526" 
d="M48 137c0 116 100 198 235 198c53 0 91 -16 108 -29l6 34c8 46 -21 77 -82 77c-52 0 -103 -17 -145 -37l-37 94c53 32 137 62 217 62c168 0 203 -88 183 -205l-55 -331h-122l-3 34c-32 -29 -75 -47 -135 -47c-96 0 -170 56 -170 150zM189 157c0 -38 32 -63 80 -63
c57 0 103 32 103 82c0 40 -32 63 -80 63c-58 0 -103 -35 -103 -82zM361 564c-53 0 -91 35 -91 85c0 66 58 113 125 113c55 0 93 -34 93 -84c0 -66 -58 -114 -127 -114zM372 624c27 0 46 20 46 46c0 19 -12 32 -33 32c-26 0 -45 -19 -45 -46c0 -19 12 -32 32 -32z" />
    <glyph glyph-name="atilde" unicode="&#xe3;" horiz-adv-x="526" 
d="M48 137c0 116 100 198 235 198c53 0 91 -16 108 -29l6 34c8 46 -21 77 -82 77c-52 0 -103 -17 -145 -37l-37 94c53 32 137 62 217 62c168 0 203 -88 183 -205l-55 -331h-122l-3 34c-32 -29 -75 -47 -135 -47c-96 0 -170 56 -170 150zM189 157c0 -38 32 -63 80 -63
c57 0 103 32 103 82c0 40 -32 63 -80 63c-58 0 -103 -35 -103 -82zM424 587c-53 0 -85 37 -119 37c-20 0 -34 -14 -38 -38h-88c13 80 65 134 133 134c55 0 85 -37 117 -37c20 0 35 15 39 38h88c-14 -82 -65 -134 -132 -134z" />
    <glyph glyph-name="adieresis" unicode="&#xe4;" horiz-adv-x="526" 
d="M48 137c0 116 100 198 235 198c53 0 91 -16 108 -29l6 34c8 46 -21 77 -82 77c-52 0 -103 -17 -145 -37l-37 94c53 32 137 62 217 62c168 0 203 -88 183 -205l-55 -331h-122l-3 34c-32 -29 -75 -47 -135 -47c-96 0 -170 56 -170 150zM189 157c0 -38 32 -63 80 -63
c57 0 103 32 103 82c0 40 -32 63 -80 63c-58 0 -103 -35 -103 -82zM270 585c-36 0 -58 25 -58 58c0 42 37 78 81 78c35 0 57 -26 57 -59c0 -42 -37 -77 -80 -77zM462 585c-36 0 -58 25 -58 58c0 41 35 78 81 78c35 0 57 -26 57 -59c0 -42 -37 -77 -80 -77z" />
    <glyph glyph-name="acircumflex" unicode="&#xe2;" horiz-adv-x="526" 
d="M48 137c0 116 100 198 235 198c53 0 91 -16 108 -29l6 34c8 46 -21 77 -82 77c-52 0 -103 -17 -145 -37l-37 94c53 32 137 62 217 62c168 0 203 -88 183 -205l-55 -331h-122l-3 34c-32 -29 -75 -47 -135 -47c-96 0 -170 56 -170 150zM189 157c0 -38 32 -63 80 -63
c57 0 103 32 103 82c0 40 -32 63 -80 63c-58 0 -103 -35 -103 -82zM411 584l-37 71l-61 -71h-118l118 140h142l72 -140h-116z" />
    <glyph glyph-name="agrave" unicode="&#xe0;" horiz-adv-x="526" 
d="M48 137c0 116 100 198 235 198c53 0 91 -16 108 -29l6 34c8 46 -21 77 -82 77c-52 0 -103 -17 -145 -37l-37 94c53 32 137 62 217 62c168 0 203 -88 183 -205l-55 -331h-122l-3 34c-32 -29 -75 -47 -135 -47c-96 0 -170 56 -170 150zM189 157c0 -38 32 -63 80 -63
c57 0 103 32 103 82c0 40 -32 63 -80 63c-58 0 -103 -35 -103 -82zM393 725l43 -144h-111l-78 144h146z" />
    <glyph glyph-name="eacute" unicode="&#xe9;" horiz-adv-x="559" 
d="M65 216c0 178 137 320 305 320c139 0 215 -86 215 -223c0 -37 -9 -76 -12 -86h-368c-9 -70 37 -120 114 -120c71 0 119 42 138 64l83 -69c-26 -37 -111 -115 -241 -115c-148 0 -234 97 -234 229zM224 317h225c8 64 -31 106 -94 106c-65 0 -115 -46 -131 -106zM308 581
l91 144h145l-121 -144h-115z" />
    <glyph glyph-name="egrave" unicode="&#xe8;" horiz-adv-x="559" 
d="M65 216c0 178 137 320 305 320c139 0 215 -86 215 -223c0 -37 -9 -76 -12 -86h-368c-9 -70 37 -120 114 -120c71 0 119 42 138 64l83 -69c-26 -37 -111 -115 -241 -115c-148 0 -234 97 -234 229zM224 317h225c8 64 -31 106 -94 106c-65 0 -115 -46 -131 -106zM411 725
l43 -144h-111l-78 144h146z" />
    <glyph glyph-name="ecircumflex" unicode="&#xea;" horiz-adv-x="559" 
d="M65 216c0 178 137 320 305 320c139 0 215 -86 215 -223c0 -37 -9 -76 -12 -86h-368c-9 -70 37 -120 114 -120c71 0 119 42 138 64l83 -69c-26 -37 -111 -115 -241 -115c-148 0 -234 97 -234 229zM224 317h225c8 64 -31 106 -94 106c-65 0 -115 -46 -131 -106zM435 584
l-37 71l-61 -71h-118l118 140h142l72 -140h-116z" />
    <glyph glyph-name="edieresis" unicode="&#xeb;" horiz-adv-x="559" 
d="M65 216c0 178 137 320 305 320c139 0 215 -86 215 -223c0 -37 -9 -76 -12 -86h-368c-9 -70 37 -120 114 -120c71 0 119 42 138 64l83 -69c-26 -37 -111 -115 -241 -115c-148 0 -234 97 -234 229zM224 317h225c8 64 -31 106 -94 106c-65 0 -115 -46 -131 -106zM290 585
c-36 0 -58 25 -58 58c0 42 37 78 81 78c35 0 57 -26 57 -59c0 -42 -37 -77 -80 -77zM482 585c-36 0 -58 25 -58 58c0 41 35 78 81 78c35 0 57 -26 57 -59c0 -42 -37 -77 -80 -77z" />
    <glyph glyph-name="ntilde" unicode="&#xf1;" horiz-adv-x="560" 
d="M419 536c149 0 161 -123 142 -234l-51 -302h-138l53 318c10 58 -24 94 -71 94c-57 0 -100 -42 -109 -98l-53 -314h-138l88 523h135l-11 -61c28 36 85 74 153 74zM448 587c-53 0 -85 37 -119 37c-20 0 -34 -14 -38 -38h-88c13 80 65 134 133 134c55 0 85 -37 117 -37
c20 0 35 15 39 38h88c-14 -82 -65 -134 -132 -134z" />
    <glyph glyph-name="oacute" unicode="&#xf3;" horiz-adv-x="613" 
d="M64 219c0 179 155 317 332 317c143 0 240 -100 240 -236c0 -177 -149 -313 -332 -313c-145 0 -240 97 -240 232zM204 235c0 -74 48 -126 120 -126c94 0 172 75 172 176c0 75 -48 129 -121 129c-93 0 -171 -77 -171 -179zM330 581l91 144h145l-121 -144h-115z" />
    <glyph glyph-name="otilde" unicode="&#xf5;" horiz-adv-x="613" 
d="M64 219c0 179 155 317 332 317c143 0 240 -100 240 -236c0 -177 -149 -313 -332 -313c-145 0 -240 97 -240 232zM204 235c0 -74 48 -126 120 -126c94 0 172 75 172 176c0 75 -48 129 -121 129c-93 0 -171 -77 -171 -179zM474 587c-53 0 -85 37 -119 37
c-20 0 -34 -14 -38 -38h-88c13 80 65 134 133 134c55 0 85 -37 117 -37c20 0 35 15 39 38h88c-14 -82 -65 -134 -132 -134z" />
    <glyph glyph-name="odieresis" unicode="&#xf6;" horiz-adv-x="613" 
d="M64 219c0 179 155 317 332 317c143 0 240 -100 240 -236c0 -177 -149 -313 -332 -313c-145 0 -240 97 -240 232zM204 235c0 -74 48 -126 120 -126c94 0 172 75 172 176c0 75 -48 129 -121 129c-93 0 -171 -77 -171 -179zM312 585c-36 0 -58 25 -58 58c0 42 37 78 81 78
c35 0 57 -26 57 -59c0 -42 -37 -77 -80 -77zM504 585c-36 0 -58 25 -58 58c0 41 35 78 81 78c35 0 57 -26 57 -59c0 -42 -37 -77 -80 -77z" />
    <glyph glyph-name="ocircumflex" unicode="&#xf4;" horiz-adv-x="613" 
d="M64 219c0 179 155 317 332 317c143 0 240 -100 240 -236c0 -177 -149 -313 -332 -313c-145 0 -240 97 -240 232zM204 235c0 -74 48 -126 120 -126c94 0 172 75 172 176c0 75 -48 129 -121 129c-93 0 -171 -77 -171 -179zM458 584l-37 71l-61 -71h-118l118 140h142
l72 -140h-116z" />
    <glyph glyph-name="ograve" unicode="&#xf2;" horiz-adv-x="613" 
d="M64 219c0 179 155 317 332 317c143 0 240 -100 240 -236c0 -177 -149 -313 -332 -313c-145 0 -240 97 -240 232zM204 235c0 -74 48 -126 120 -126c94 0 172 75 172 176c0 75 -48 129 -121 129c-93 0 -171 -77 -171 -179zM427 725l43 -144h-111l-78 144h146z" />
    <glyph glyph-name="uacute" unicode="&#xfa;" horiz-adv-x="556" 
d="M228 -13c-149 0 -160 123 -141 234l51 302h137l-53 -318c-10 -58 24 -94 71 -94c57 0 101 42 110 98l53 314h137l-87 -523h-135l10 61c-28 -36 -85 -74 -153 -74zM304 581l91 144h145l-121 -144h-115z" />
    <glyph glyph-name="udieresis" unicode="&#xfc;" horiz-adv-x="556" 
d="M228 -13c-149 0 -160 123 -141 234l51 302h137l-53 -318c-10 -58 24 -94 71 -94c57 0 101 42 110 98l53 314h137l-87 -523h-135l10 61c-28 -36 -85 -74 -153 -74zM286 585c-36 0 -58 25 -58 58c0 42 37 78 81 78c35 0 57 -26 57 -59c0 -42 -37 -77 -80 -77zM478 585
c-36 0 -58 25 -58 58c0 41 35 78 81 78c35 0 57 -26 57 -59c0 -42 -37 -77 -80 -77z" />
    <glyph glyph-name="ucircumflex" unicode="&#xfb;" horiz-adv-x="556" 
d="M228 -13c-149 0 -160 123 -141 234l51 302h137l-53 -318c-10 -58 24 -94 71 -94c57 0 101 42 110 98l53 314h137l-87 -523h-135l10 61c-28 -36 -85 -74 -153 -74zM429 584l-37 71l-61 -71h-118l118 140h142l72 -140h-116z" />
    <glyph glyph-name="ugrave" unicode="&#xf9;" horiz-adv-x="556" 
d="M228 -13c-149 0 -160 123 -141 234l51 302h137l-53 -318c-10 -58 24 -94 71 -94c57 0 101 42 110 98l53 314h137l-87 -523h-135l10 61c-28 -36 -85 -74 -153 -74zM409 725l43 -144h-111l-78 144h146z" />
    <glyph glyph-name="Adieresis" unicode="&#xc4;" horiz-adv-x="660" 
d="M481 180h-238l-91 -180h-144l365 700h148l131 -700h-140zM464 297l-40 252l-123 -252h163zM359 744c-36 0 -58 25 -58 58c0 42 37 78 81 78c35 0 57 -26 57 -59c0 -42 -37 -77 -80 -77zM551 744c-36 0 -58 25 -58 58c0 41 35 78 81 78c35 0 57 -26 57 -59
c0 -42 -37 -77 -80 -77z" />
    <glyph glyph-name="Odieresis" unicode="&#xd6;" horiz-adv-x="789" 
d="M392 -13c-191 0 -309 132 -309 308c0 229 191 418 431 418c191 0 308 -134 308 -309c0 -230 -190 -417 -430 -417zM491 581c-141 0 -259 -119 -259 -269c0 -112 71 -193 182 -193c142 0 260 117 260 268c0 112 -71 194 -183 194zM426 744c-36 0 -58 25 -58 58
c0 42 37 78 81 78c35 0 57 -26 57 -59c0 -42 -37 -77 -80 -77zM618 744c-36 0 -58 25 -58 58c0 41 35 78 81 78c35 0 57 -26 57 -59c0 -42 -37 -77 -80 -77z" />
    <glyph glyph-name="Udieresis" unicode="&#xdc;" horiz-adv-x="692" 
d="M343 -13c-181 0 -263 111 -235 276l73 437h141l-73 -437c-15 -89 26 -145 116 -145s151 56 166 145l73 437h141l-73 -437c-28 -165 -148 -276 -329 -276zM378 744c-36 0 -58 25 -58 58c0 42 37 78 81 78c35 0 57 -26 57 -59c0 -42 -37 -77 -80 -77zM570 744
c-36 0 -58 25 -58 58c0 41 35 78 81 78c35 0 57 -26 57 -59c0 -42 -37 -77 -80 -77z" />
    <glyph glyph-name="Edieresis" unicode="&#xcb;" horiz-adv-x="481" 
d="M67 0l117 700h360l-21 -127h-219l-26 -156h188l-21 -125h-188l-28 -166h228l-21 -126h-369zM281 744c-36 0 -58 25 -58 58c0 42 37 78 81 78c35 0 57 -26 57 -59c0 -42 -37 -77 -80 -77zM473 744c-36 0 -58 25 -58 58c0 41 35 78 81 78c35 0 57 -26 57 -59
c0 -42 -37 -77 -80 -77z" />
    <glyph glyph-name="Idieresis" unicode="&#xcf;" horiz-adv-x="275" 
d="M67 0l117 700h141l-117 -700h-141zM173 744c-36 0 -58 25 -58 58c0 42 37 78 81 78c35 0 57 -26 57 -59c0 -42 -37 -77 -80 -77zM365 744c-36 0 -58 25 -58 58c0 41 35 78 81 78c35 0 57 -26 57 -59c0 -42 -37 -77 -80 -77z" />
    <glyph glyph-name="Aring" unicode="&#xc5;" horiz-adv-x="660" 
d="M481 180h-238l-91 -180h-144l365 700h148l131 -700h-140zM464 297l-40 252l-123 -252h163zM451 731c-53 0 -91 35 -91 85c0 66 58 113 125 113c55 0 93 -34 93 -84c0 -66 -58 -114 -127 -114zM462 791c27 0 46 20 46 46c0 19 -12 32 -33 32c-26 0 -45 -19 -45 -46
c0 -19 12 -32 32 -32z" />
    <glyph glyph-name="Eacute" unicode="&#xc9;" horiz-adv-x="481" 
d="M67 0l117 700h360l-21 -127h-219l-26 -156h188l-21 -125h-188l-28 -166h228l-21 -126h-369zM301 738l91 144h145l-121 -144h-115z" />
    <glyph glyph-name="Aacute" unicode="&#xc1;" horiz-adv-x="660" 
d="M481 180h-238l-91 -180h-144l365 700h148l131 -700h-140zM464 297l-40 252l-123 -252h163zM385 738l91 144h145l-121 -144h-115z" />
    <glyph glyph-name="Uacute" unicode="&#xda;" horiz-adv-x="692" 
d="M343 -13c-181 0 -263 111 -235 276l73 437h141l-73 -437c-15 -89 26 -145 116 -145s151 56 166 145l73 437h141l-73 -437c-28 -165 -148 -276 -329 -276zM403 738l91 144h145l-121 -144h-115z" />
    <glyph glyph-name="Iacute" unicode="&#xcd;" horiz-adv-x="275" 
d="M67 0l117 700h141l-117 -700h-141zM192 738l91 144h145l-121 -144h-115z" />
    <glyph glyph-name="Oacute" unicode="&#xd3;" horiz-adv-x="788" 
d="M392 -13c-191 0 -309 132 -309 308c0 229 191 418 431 418c191 0 308 -134 308 -309c0 -230 -190 -417 -430 -417zM491 581c-141 0 -259 -119 -259 -269c0 -112 71 -193 182 -193c142 0 260 117 260 268c0 112 -71 194 -183 194zM446 738l91 144h145l-121 -144h-115z" />
    <glyph glyph-name="ydieresis" unicode="&#xff;" horiz-adv-x="540" 
d="M237 -179h-132l105 192l-116 510h147l60 -341l174 341h146zM274 585c-36 0 -58 25 -58 58c0 42 37 78 81 78c35 0 57 -26 57 -59c0 -42 -37 -77 -80 -77zM466 585c-36 0 -58 25 -58 58c0 41 35 78 81 78c35 0 57 -26 57 -59c0 -42 -37 -77 -80 -77z" />
    <glyph glyph-name="Ydieresis" unicode="&#x178;" horiz-adv-x="584" 
d="M222 0l53 320l-151 380h157l84 -251l168 251h161l-279 -380l-53 -320h-140zM323 750c-36 0 -58 25 -58 58c0 42 37 78 81 78c35 0 57 -26 57 -59c0 -42 -37 -77 -80 -77zM515 750c-36 0 -58 25 -58 58c0 41 35 78 81 78c35 0 57 -26 57 -59c0 -42 -37 -77 -80 -77z" />
    <glyph glyph-name="Agrave" unicode="&#xc0;" horiz-adv-x="660" 
d="M481 180h-238l-91 -180h-144l365 700h148l131 -700h-140zM464 297l-40 252l-123 -252h163zM472 882l43 -144h-111l-78 144h146z" />
    <glyph glyph-name="Ograve" unicode="&#xd2;" horiz-adv-x="788" 
d="M392 -13c-191 0 -309 132 -309 308c0 229 191 418 431 418c191 0 308 -134 308 -309c0 -230 -190 -417 -430 -417zM491 581c-141 0 -259 -119 -259 -269c0 -112 71 -193 182 -193c142 0 260 117 260 268c0 112 -71 194 -183 194zM542 882l43 -144h-111l-78 144h146z" />
    <glyph glyph-name="Igrave" unicode="&#xcc;" horiz-adv-x="275" 
d="M67 0l117 700h141l-117 -700h-141zM295 882l43 -144h-111l-78 144h146z" />
    <glyph glyph-name="Egrave" unicode="&#xc8;" horiz-adv-x="481" 
d="M67 0l117 700h360l-21 -127h-219l-26 -156h188l-21 -125h-188l-28 -166h228l-21 -126h-369zM410 882l43 -144h-111l-78 144h146z" />
    <glyph glyph-name="Ugrave" unicode="&#xd9;" horiz-adv-x="692" 
d="M343 -13c-181 0 -263 111 -235 276l73 437h141l-73 -437c-15 -89 26 -145 116 -145s151 56 166 145l73 437h141l-73 -437c-28 -165 -148 -276 -329 -276zM498 882l43 -144h-111l-78 144h146z" />
    <glyph glyph-name="Ntilde" unicode="&#xd1;" horiz-adv-x="713" 
d="M507 0l-222 476l-80 -476h-139l117 700h143l219 -480l80 480h139l-117 -700h-140zM552 744c-53 0 -85 37 -119 37c-20 0 -34 -14 -38 -38h-88c13 80 65 134 133 134c55 0 85 -37 117 -37c20 0 35 15 39 38h88c-14 -82 -65 -134 -132 -134z" />
    <glyph glyph-name="Atilde" unicode="&#xc3;" horiz-adv-x="660" 
d="M481 180h-238l-91 -180h-144l365 700h148l131 -700h-140zM464 297l-40 252l-123 -252h163zM522 744c-53 0 -85 37 -119 37c-20 0 -34 -14 -38 -38h-88c13 80 65 134 133 134c55 0 85 -37 117 -37c20 0 35 15 39 38h88c-14 -82 -65 -134 -132 -134z" />
    <glyph glyph-name="Otilde" unicode="&#xd5;" horiz-adv-x="788" 
d="M392 -13c-191 0 -309 132 -309 308c0 229 191 418 431 418c191 0 308 -134 308 -309c0 -230 -190 -417 -430 -417zM491 581c-141 0 -259 -119 -259 -269c0 -112 71 -193 182 -193c142 0 260 117 260 268c0 112 -71 194 -183 194zM587 744c-53 0 -85 37 -119 37
c-20 0 -34 -14 -38 -38h-88c13 80 65 134 133 134c55 0 85 -37 117 -37c20 0 35 15 39 38h88c-14 -82 -65 -134 -132 -134z" />
    <glyph glyph-name="Acircumflex" unicode="&#xc2;" horiz-adv-x="660" 
d="M481 180h-238l-91 -180h-144l365 700h148l131 -700h-140zM464 297l-40 252l-123 -252h163zM504 739l-37 71l-61 -71h-118l118 140h142l72 -140h-116z" />
    <glyph glyph-name="Ecircumflex" unicode="&#xca;" horiz-adv-x="481" 
d="M67 0l117 700h360l-21 -127h-219l-26 -156h188l-21 -125h-188l-28 -166h228l-21 -126h-369zM425 739l-37 71l-61 -71h-118l118 140h142l72 -140h-116z" />
    <glyph glyph-name="Icircumflex" unicode="&#xce;" horiz-adv-x="275" 
d="M67 0l117 700h141l-117 -700h-141zM314 739l-37 71l-61 -71h-118l118 140h142l72 -140h-116z" />
    <glyph glyph-name="Ocircumflex" unicode="&#xd4;" horiz-adv-x="788" 
d="M392 -13c-191 0 -309 132 -309 308c0 229 191 418 431 418c191 0 308 -134 308 -309c0 -230 -190 -417 -430 -417zM491 581c-141 0 -259 -119 -259 -269c0 -112 71 -193 182 -193c142 0 260 117 260 268c0 112 -71 194 -183 194zM571 739l-37 71l-61 -71h-118l118 140
h142l72 -140h-116z" />
    <glyph glyph-name="Ucircumflex" unicode="&#xdb;" horiz-adv-x="692" 
d="M343 -13c-181 0 -263 111 -235 276l73 437h141l-73 -437c-15 -89 26 -145 116 -145s151 56 166 145l73 437h141l-73 -437c-28 -165 -148 -276 -329 -276zM520 739l-37 71l-61 -71h-118l118 140h142l72 -140h-116z" />
    <glyph glyph-name="Yacute" unicode="&#xdd;" horiz-adv-x="584" 
d="M222 0l53 320l-151 380h157l84 -251l168 251h161l-279 -380l-53 -320h-140zM351 738l91 144h145l-121 -144h-115z" />
    <glyph glyph-name="Tcommaaccent" unicode="&#x162;" horiz-adv-x="511" 
d="M185 0l96 573h-164l21 127h468l-21 -127h-163l-96 -573h-52l-12 -39c41 -9 62 -41 62 -78c0 -73 -66 -116 -142 -116c-20 0 -47 6 -56 9l28 71c6 -2 19 -5 32 -5c25 0 49 12 49 37c0 19 -22 27 -45 27c-8 0 -18 -2 -18 -2l30 96h-17z" />
    <glyph glyph-name="tcommaaccent" unicode="&#x163;" horiz-adv-x="333" 
d="M155 523l18 110h136l-18 -110h98l-19 -112h-98l-34 -202c-13 -78 9 -94 62 -94c9 0 14 0 25 1l-20 -118s-22 -5 -60 -5c-14 0 -27 1 -38 3l-11 -35c41 -9 62 -41 62 -78c0 -73 -66 -116 -142 -116c-20 0 -47 6 -56 9l28 71c6 -2 19 -5 32 -5c25 0 49 12 49 37
c0 19 -22 27 -45 27c-8 0 -18 -2 -18 -2l35 116c-43 32 -55 94 -40 185l34 206h-55l19 112h56z" />
    <glyph glyph-name="yacute" unicode="&#xfd;" horiz-adv-x="540" 
d="M237 -179h-132l105 192l-116 510h147l60 -341l174 341h146zM300 581l91 144h145l-121 -144h-115z" />
    <glyph glyph-name="Amacron" unicode="&#x100;" horiz-adv-x="660" 
d="M481 180h-238l-91 -180h-144l365 700h148l131 -700h-140zM464 297l-40 252l-123 -252h163zM322 751l17 101h268l-17 -101h-268z" />
    <glyph glyph-name="amacron" unicode="&#x101;" horiz-adv-x="526" 
d="M48 137c0 116 100 198 235 198c53 0 91 -16 108 -29l6 34c8 46 -21 77 -82 77c-52 0 -103 -17 -145 -37l-37 94c53 32 137 62 217 62c168 0 203 -88 183 -205l-55 -331h-122l-3 34c-32 -29 -75 -47 -135 -47c-96 0 -170 56 -170 150zM189 157c0 -38 32 -63 80 -63
c57 0 103 32 103 82c0 40 -32 63 -80 63c-58 0 -103 -35 -103 -82zM234 603l17 101h268l-17 -101h-268z" />
    <glyph glyph-name="Abreve" unicode="&#x102;" horiz-adv-x="660" 
d="M481 180h-238l-91 -180h-144l365 700h148l131 -700h-140zM464 297l-40 252l-123 -252h163zM454 741c-96 0 -141 60 -127 143h96c-5 -31 1 -62 42 -62c42 0 58 31 63 62h102c-14 -83 -78 -143 -176 -143z" />
    <glyph glyph-name="abreve" unicode="&#x103;" horiz-adv-x="526" 
d="M48 137c0 116 100 198 235 198c53 0 91 -16 108 -29l6 34c8 46 -21 77 -82 77c-52 0 -103 -17 -145 -37l-37 94c53 32 137 62 217 62c168 0 203 -88 183 -205l-55 -331h-122l-3 34c-32 -29 -75 -47 -135 -47c-96 0 -170 56 -170 150zM189 157c0 -38 32 -63 80 -63
c57 0 103 32 103 82c0 40 -32 63 -80 63c-58 0 -103 -35 -103 -82zM373 581c-96 0 -141 60 -127 143h96c-5 -31 1 -62 42 -62c42 0 58 31 63 62h102c-14 -83 -78 -143 -176 -143z" />
    <glyph glyph-name="scommaaccent" unicode="&#x219;" horiz-adv-x="435" 
d="M212 -13c-103 0 -159 52 -179 97l93 72c21 -30 52 -57 111 -57c43 0 72 20 72 52c0 69 -211 51 -211 205c0 113 101 180 219 180c99 0 145 -52 163 -93l-102 -68c-13 20 -37 50 -86 50c-35 0 -62 -19 -62 -47c0 -72 213 -46 213 -200c0 -117 -107 -191 -231 -191z
M110 -240c20 14 49 39 64 65c-33 7 -48 35 -48 62c0 46 43 84 88 84c40 0 66 -28 66 -71c0 -72 -56 -147 -127 -191z" />
    <glyph glyph-name="Scommaaccent" unicode="&#x218;" horiz-adv-x="521" 
d="M374 713c141 0 190 -102 199 -153l-121 -53c-10 33 -33 76 -94 76c-54 0 -88 -34 -88 -75c0 -101 255 -112 255 -294c0 -133 -96 -227 -260 -227c-150 0 -208 105 -218 162l125 58c11 -46 47 -89 110 -89c59 0 96 33 96 81c0 104 -252 106 -252 292c0 124 98 222 248 222
zM144 -240c20 14 49 39 64 65c-33 7 -48 35 -48 62c0 46 43 84 88 84c40 0 66 -28 66 -71c0 -72 -56 -147 -127 -191z" />
    <glyph glyph-name="Cacute" unicode="&#x106;" horiz-adv-x="638" 
d="M393 -13c-194 0 -310 131 -310 307c0 233 197 419 432 419c93 0 157 -31 197 -64l-61 -124c-30 24 -87 56 -158 56c-143 0 -261 -119 -261 -269c0 -112 71 -193 183 -193c76 0 147 34 184 57l19 -123c-47 -31 -123 -66 -225 -66zM426 738l91 144h145l-121 -144h-115z" />
    <glyph glyph-name="zcaron" unicode="&#x17e;" horiz-adv-x="468" 
d="M508 437l-290 -322h239l-19 -115h-410l14 85l290 323h-229l20 115h400zM342 653l61 71h121l-118 -140h-142l-72 140h113z" />
    <glyph glyph-name="Zcaron" unicode="&#x17d;" horiz-adv-x="603" 
d="M32 0l15 92l422 483h-331l21 125h522l-15 -92l-424 -483h346l-21 -125h-535zM431 808l61 71h121l-118 -140h-142l-72 140h113z" />
    <glyph glyph-name="cacute" unicode="&#x107;" horiz-adv-x="490" 
d="M330 109c53 0 100 28 126 47l21 -113c-34 -24 -94 -56 -175 -56c-145 0 -238 96 -238 231c0 180 152 318 329 318c77 0 126 -30 155 -56l-57 -116c-20 21 -56 50 -115 50c-100 0 -172 -83 -172 -177c0 -75 49 -128 126 -128zM311 581l91 144h145l-121 -144h-115z" />
    <glyph glyph-name="Ccircumflex" unicode="&#x108;" horiz-adv-x="638" 
d="M393 -13c-194 0 -310 131 -310 307c0 233 197 419 432 419c93 0 157 -31 197 -64l-61 -124c-30 24 -87 56 -158 56c-143 0 -261 -119 -261 -269c0 -112 71 -193 183 -193c76 0 147 34 184 57l19 -123c-47 -31 -123 -66 -225 -66zM566 739l-37 71l-61 -71h-118l118 140
h142l72 -140h-116z" />
    <glyph glyph-name="ccircumflex" unicode="&#x109;" horiz-adv-x="490" 
d="M330 109c53 0 100 28 126 47l21 -113c-34 -24 -94 -56 -175 -56c-145 0 -238 96 -238 231c0 180 152 318 329 318c77 0 126 -30 155 -56l-57 -116c-20 21 -56 50 -115 50c-100 0 -172 -83 -172 -177c0 -75 49 -128 126 -128zM446 584l-37 71l-61 -71h-118l118 140h142
l72 -140h-116z" />
    <glyph glyph-name="dcaron" unicode="&#x10f;" horiz-adv-x="620" 
d="M690 549l36 174h130l-75 -174h-91zM687 723l-121 -723h-130l9 54c-17 -17 -77 -67 -166 -67c-132 0 -215 93 -215 228c0 181 127 321 299 321c90 0 134 -50 144 -68l42 255h138zM479 290c0 78 -45 124 -112 124c-91 0 -162 -78 -162 -182c0 -76 43 -123 111 -123
c96 0 163 84 163 181z" />
    <glyph glyph-name="Cdotaccent" unicode="&#x10a;" horiz-adv-x="638" 
d="M393 -13c-194 0 -310 131 -310 307c0 233 197 419 432 419c93 0 157 -31 197 -64l-61 -124c-30 24 -87 56 -158 56c-143 0 -261 -119 -261 -269c0 -112 71 -193 183 -193c76 0 147 34 184 57l19 -123c-47 -31 -123 -66 -225 -66zM449 798c0 50 45 90 95 90
c41 0 69 -29 69 -68c0 -50 -45 -90 -96 -90c-40 0 -68 29 -68 68z" />
    <glyph glyph-name="cdotaccent" unicode="&#x10b;" horiz-adv-x="490" 
d="M330 109c53 0 100 28 126 47l21 -113c-34 -24 -94 -56 -175 -56c-145 0 -238 96 -238 231c0 180 152 318 329 318c77 0 126 -30 155 -56l-57 -116c-20 21 -56 50 -115 50c-100 0 -172 -83 -172 -177c0 -75 49 -128 126 -128zM328 638c0 50 45 90 95 90
c41 0 69 -29 69 -68c0 -50 -45 -90 -96 -90c-40 0 -68 29 -68 68z" />
    <glyph glyph-name="zdotaccent" unicode="&#x17c;" horiz-adv-x="468" 
d="M508 437l-290 -322h239l-19 -115h-410l14 85l290 323h-229l20 115h400zM265 638c0 50 45 90 95 90c41 0 69 -29 69 -68c0 -50 -45 -90 -96 -90c-40 0 -68 29 -68 68z" />
    <glyph glyph-name="Ccaron" unicode="&#x10c;" horiz-adv-x="638" 
d="M393 -13c-194 0 -310 131 -310 307c0 233 197 419 432 419c93 0 157 -31 197 -64l-61 -124c-30 24 -87 56 -158 56c-143 0 -261 -119 -261 -269c0 -112 71 -193 183 -193c76 0 147 34 184 57l19 -123c-47 -31 -123 -66 -225 -66zM523 808l61 71h121l-118 -140h-142
l-72 140h113z" />
    <glyph glyph-name="ccaron" unicode="&#x10d;" horiz-adv-x="490" 
d="M330 109c53 0 100 28 126 47l21 -113c-34 -24 -94 -56 -175 -56c-145 0 -238 96 -238 231c0 180 152 318 329 318c77 0 126 -30 155 -56l-57 -116c-20 21 -56 50 -115 50c-100 0 -172 -83 -172 -177c0 -75 49 -128 126 -128zM400 653l61 71h121l-118 -140h-142l-72 140
h113z" />
    <glyph glyph-name="Dcaron" unicode="&#x10e;" horiz-adv-x="655" 
d="M67 0l117 700h186c202 0 319 -109 319 -289c0 -256 -175 -411 -436 -411h-186zM228 122h50c155 0 262 98 262 272c0 118 -70 183 -185 183h-50zM412 808l61 71h121l-118 -140h-142l-72 140h113z" />
    <glyph glyph-name="Emacron" unicode="&#x112;" horiz-adv-x="481" 
d="M67 0l117 700h360l-21 -127h-219l-26 -156h188l-21 -125h-188l-28 -166h228l-21 -126h-369zM246 751l17 101h268l-17 -101h-268z" />
    <glyph glyph-name="emacron" unicode="&#x113;" horiz-adv-x="559" 
d="M65 216c0 178 137 320 305 320c139 0 215 -86 215 -223c0 -37 -9 -76 -12 -86h-368c-9 -70 37 -120 114 -120c71 0 119 42 138 64l83 -69c-26 -37 -111 -115 -241 -115c-148 0 -234 97 -234 229zM224 317h225c8 64 -31 106 -94 106c-65 0 -115 -46 -131 -106zM256 603
l17 101h268l-17 -101h-268z" />
    <glyph glyph-name="Ebreve" unicode="&#x114;" horiz-adv-x="481" 
d="M67 0l117 700h360l-21 -127h-219l-26 -156h188l-21 -125h-188l-28 -166h228l-21 -126h-369zM374 741c-96 0 -141 60 -127 143h96c-5 -31 1 -62 42 -62c42 0 58 31 63 62h102c-14 -83 -78 -143 -176 -143z" />
    <glyph glyph-name="ebreve" unicode="&#x115;" horiz-adv-x="559" 
d="M65 216c0 178 137 320 305 320c139 0 215 -86 215 -223c0 -37 -9 -76 -12 -86h-368c-9 -70 37 -120 114 -120c71 0 119 42 138 64l83 -69c-26 -37 -111 -115 -241 -115c-148 0 -234 97 -234 229zM224 317h225c8 64 -31 106 -94 106c-65 0 -115 -46 -131 -106zM379 581
c-96 0 -141 60 -127 143h96c-5 -31 1 -62 42 -62c42 0 58 31 63 62h102c-14 -83 -78 -143 -176 -143z" />
    <glyph glyph-name="Edotaccent" unicode="&#x116;" horiz-adv-x="481" 
d="M67 0l117 700h360l-21 -127h-219l-26 -156h188l-21 -125h-188l-28 -166h228l-21 -126h-369zM311 798c0 50 45 90 95 90c41 0 69 -29 69 -68c0 -50 -45 -90 -96 -90c-40 0 -68 29 -68 68z" />
    <glyph glyph-name="edotaccent" unicode="&#x117;" horiz-adv-x="559" 
d="M65 216c0 178 137 320 305 320c139 0 215 -86 215 -223c0 -37 -9 -76 -12 -86h-368c-9 -70 37 -120 114 -120c71 0 119 42 138 64l83 -69c-26 -37 -111 -115 -241 -115c-148 0 -234 97 -234 229zM224 317h225c8 64 -31 106 -94 106c-65 0 -115 -46 -131 -106zM313 638
c0 50 45 90 95 90c41 0 69 -29 69 -68c0 -50 -45 -90 -96 -90c-40 0 -68 29 -68 68z" />
    <glyph glyph-name="Ecaron" unicode="&#x11a;" horiz-adv-x="481" 
d="M67 0l117 700h360l-21 -127h-219l-26 -156h188l-21 -125h-188l-28 -166h228l-21 -126h-369zM390 808l61 71h121l-118 -140h-142l-72 140h113z" />
    <glyph glyph-name="ecaron" unicode="&#x11b;" horiz-adv-x="559" 
d="M65 216c0 178 137 320 305 320c139 0 215 -86 215 -223c0 -37 -9 -76 -12 -86h-368c-9 -70 37 -120 114 -120c71 0 119 42 138 64l83 -69c-26 -37 -111 -115 -241 -115c-148 0 -234 97 -234 229zM224 317h225c8 64 -31 106 -94 106c-65 0 -115 -46 -131 -106zM389 653
l61 71h121l-118 -140h-142l-72 140h113z" />
    <glyph glyph-name="Gcircumflex" unicode="&#x11c;" horiz-adv-x="747" 
d="M513 713c147 0 227 -73 256 -116l-104 -92c-17 23 -68 77 -168 77c-155 0 -265 -124 -265 -271c0 -119 76 -192 187 -192c98 0 160 40 177 55l15 86h-133l20 119h265l-47 -277c-85 -64 -178 -115 -325 -115c-177 0 -308 120 -308 307c0 228 193 419 430 419zM571 739
l-37 71l-61 -71h-118l118 140h142l72 -140h-116z" />
    <glyph glyph-name="gcircumflex" unicode="&#x11d;" horiz-adv-x="615" 
d="M68 -144l60 106c16 -9 71 -36 143 -36c75 0 148 23 162 104l4 24c-14 -15 -74 -67 -165 -67c-132 0 -209 92 -209 225c0 186 138 324 306 324c88 0 133 -48 145 -68l9 55h130l-76 -457c-33 -195 -171 -258 -325 -258c-72 0 -141 22 -184 48zM478 289
c0 74 -42 125 -112 125c-89 0 -162 -74 -162 -180c0 -75 44 -125 112 -125c92 0 162 75 162 180zM456 584l-37 71l-61 -71h-118l118 140h142l72 -140h-116z" />
    <glyph glyph-name="Zdotaccent" unicode="&#x17b;" horiz-adv-x="603" 
d="M32 0l15 92l422 483h-331l21 125h522l-15 -92l-424 -483h346l-21 -125h-535zM355 798c0 50 45 90 95 90c41 0 69 -29 69 -68c0 -50 -45 -90 -96 -90c-40 0 -68 29 -68 68z" />
    <glyph glyph-name="zacute" unicode="&#x17a;" horiz-adv-x="468" 
d="M508 437l-290 -322h239l-19 -115h-410l14 85l290 323h-229l20 115h400zM255 581l91 144h145l-121 -144h-115z" />
    <glyph glyph-name="Gbreve" unicode="&#x11e;" horiz-adv-x="747" 
d="M513 713c147 0 227 -73 256 -116l-104 -92c-17 23 -68 77 -168 77c-155 0 -265 -124 -265 -271c0 -119 76 -192 187 -192c98 0 160 40 177 55l15 86h-133l20 119h265l-47 -277c-85 -64 -178 -115 -325 -115c-177 0 -308 120 -308 307c0 228 193 419 430 419zM519 741
c-96 0 -141 60 -127 143h96c-5 -31 1 -62 42 -62c42 0 58 31 63 62h102c-14 -83 -78 -143 -176 -143z" />
    <glyph glyph-name="gbreve" unicode="&#x11f;" horiz-adv-x="615" 
d="M68 -144l60 106c16 -9 71 -36 143 -36c75 0 148 23 162 104l4 24c-14 -15 -74 -67 -165 -67c-132 0 -209 92 -209 225c0 186 138 324 306 324c88 0 133 -48 145 -68l9 55h130l-76 -457c-33 -195 -171 -258 -325 -258c-72 0 -141 22 -184 48zM478 289
c0 74 -42 125 -112 125c-89 0 -162 -74 -162 -180c0 -75 44 -125 112 -125c92 0 162 75 162 180zM403 581c-96 0 -141 60 -127 143h96c-5 -31 1 -62 42 -62c42 0 58 31 63 62h102c-14 -83 -78 -143 -176 -143z" />
    <glyph glyph-name="Zacute" unicode="&#x179;" horiz-adv-x="603" 
d="M32 0l15 92l422 483h-331l21 125h522l-15 -92l-424 -483h346l-21 -125h-535zM348 738l91 144h145l-121 -144h-115z" />
    <glyph glyph-name="ycircumflex" unicode="&#x177;" horiz-adv-x="540" 
d="M237 -179h-132l105 192l-116 510h147l60 -341l174 341h146zM421 584l-37 71l-61 -71h-118l118 140h142l72 -140h-116z" />
    <glyph glyph-name="Ycircumflex" unicode="&#x176;" horiz-adv-x="584" 
d="M222 0l53 320l-151 380h157l84 -251l168 251h161l-279 -380l-53 -320h-140zM467 739l-37 71l-61 -71h-118l118 140h142l72 -140h-116z" />
    <glyph glyph-name="wcircumflex" unicode="&#x175;" horiz-adv-x="828" 
d="M510 0l-39 335l-154 -335h-154l-68 523h150l30 -371l162 371h130l37 -371l155 371h150l-245 -523h-154zM562 584l-37 71l-61 -71h-118l118 140h142l72 -140h-116z" />
    <glyph glyph-name="Gdotaccent" unicode="&#x120;" horiz-adv-x="747" 
d="M513 713c147 0 227 -73 256 -116l-104 -92c-17 23 -68 77 -168 77c-155 0 -265 -124 -265 -271c0 -119 76 -192 187 -192c98 0 160 40 177 55l15 86h-133l20 119h265l-47 -277c-85 -64 -178 -115 -325 -115c-177 0 -308 120 -308 307c0 228 193 419 430 419zM453 798
c0 50 45 90 95 90c41 0 69 -29 69 -68c0 -50 -45 -90 -96 -90c-40 0 -68 29 -68 68z" />
    <glyph glyph-name="gdotaccent" unicode="&#x121;" horiz-adv-x="615" 
d="M68 -144l60 106c16 -9 71 -36 143 -36c75 0 148 23 162 104l4 24c-14 -15 -74 -67 -165 -67c-132 0 -209 92 -209 225c0 186 138 324 306 324c88 0 133 -48 145 -68l9 55h130l-76 -457c-33 -195 -171 -258 -325 -258c-72 0 -141 22 -184 48zM478 289
c0 74 -42 125 -112 125c-89 0 -162 -74 -162 -180c0 -75 44 -125 112 -125c92 0 162 75 162 180zM334 638c0 50 45 90 95 90c41 0 69 -29 69 -68c0 -50 -45 -90 -96 -90c-40 0 -68 29 -68 68z" />
    <glyph glyph-name="Gcommaaccent" unicode="&#x122;" horiz-adv-x="747" 
d="M513 713c147 0 227 -73 256 -116l-104 -92c-17 23 -68 77 -168 77c-155 0 -265 -124 -265 -271c0 -119 76 -192 187 -192c98 0 160 40 177 55l15 86h-133l20 119h265l-47 -277c-85 -64 -178 -115 -325 -115c-177 0 -308 120 -308 307c0 228 193 419 430 419zM295 -240
c20 14 49 39 64 65c-33 7 -48 35 -48 62c0 46 43 84 88 84c40 0 66 -28 66 -71c0 -72 -56 -147 -127 -191z" />
    <glyph glyph-name="Hcircumflex" unicode="&#x124;" horiz-adv-x="707" 
d="M67 0l117 700h141l-47 -284h291l47 284h141l-117 -700h-141l48 289h-291l-48 -289h-141zM532 739l-37 71l-61 -71h-118l118 140h142l72 -140h-116z" />
    <glyph glyph-name="Wcircumflex" unicode="&#x174;" horiz-adv-x="977" 
d="M620 0l-51 483l-213 -483h-159l-71 700h154l33 -524l227 524h130l51 -524l210 524h153l-304 -700h-160zM663 739l-37 71l-61 -71h-118l118 140h142l72 -140h-116z" />
    <glyph glyph-name="uhungarumlaut" unicode="&#x171;" horiz-adv-x="556" 
d="M228 -13c-149 0 -160 123 -141 234l51 302h137l-53 -318c-10 -58 24 -94 71 -94c57 0 101 42 110 98l53 314h137l-87 -523h-135l10 61c-28 -36 -85 -74 -153 -74zM395 581l92 144h132l-120 -144h-104zM221 581l91 144h133l-121 -144h-103z" />
    <glyph glyph-name="Uhungarumlaut" unicode="&#x170;" horiz-adv-x="695" 
d="M343 -13c-181 0 -263 111 -235 276l73 437h141l-73 -437c-15 -89 26 -145 116 -145s151 56 166 145l73 437h141l-73 -437c-28 -165 -148 -276 -329 -276zM503 738l92 144h132l-120 -144h-104zM329 738l91 144h133l-121 -144h-103z" />
    <glyph glyph-name="Tcaron" unicode="&#x164;" horiz-adv-x="511" 
d="M185 0l96 573h-164l21 127h468l-21 -127h-163l-96 -573h-141zM386 808l61 71h121l-118 -140h-142l-72 140h113z" />
    <glyph glyph-name="uring" unicode="&#x16f;" horiz-adv-x="556" 
d="M228 -13c-149 0 -160 123 -141 234l51 302h137l-53 -318c-10 -58 24 -94 71 -94c57 0 101 42 110 98l53 314h137l-87 -523h-135l10 61c-28 -36 -85 -74 -153 -74zM375 564c-53 0 -91 35 -91 85c0 66 58 113 125 113c55 0 93 -34 93 -84c0 -66 -58 -114 -127 -114z
M386 624c27 0 46 20 46 46c0 19 -12 32 -33 32c-26 0 -45 -19 -45 -46c0 -19 12 -32 32 -32z" />
    <glyph glyph-name="tcaron" unicode="&#x165;" horiz-adv-x="335" 
d="M340 549l36 174h130l-75 -174h-91zM155 523l18 110h136l-18 -110h98l-19 -112h-98l-34 -202c-13 -78 9 -94 62 -94c9 0 14 0 25 1l-20 -118s-22 -5 -60 -5c-125 0 -168 70 -144 212l34 206h-55l19 112h56z" />
    <glyph glyph-name="Uring" unicode="&#x16e;" horiz-adv-x="692" 
d="M343 -13c-181 0 -263 111 -235 276l73 437h141l-73 -437c-15 -89 26 -145 116 -145s151 56 166 145l73 437h141l-73 -437c-28 -165 -148 -276 -329 -276zM470 731c-53 0 -91 35 -91 85c0 66 58 113 125 113c55 0 93 -34 93 -84c0 -66 -58 -114 -127 -114zM481 791
c27 0 46 20 46 46c0 19 -12 32 -33 32c-26 0 -45 -19 -45 -46c0 -19 12 -32 32 -32z" />
    <glyph glyph-name="ubreve" unicode="&#x16d;" horiz-adv-x="556" 
d="M228 -13c-149 0 -160 123 -141 234l51 302h137l-53 -318c-10 -58 24 -94 71 -94c57 0 101 42 110 98l53 314h137l-87 -523h-135l10 61c-28 -36 -85 -74 -153 -74zM377 581c-96 0 -141 60 -127 143h96c-5 -31 1 -62 42 -62c42 0 58 31 63 62h102
c-14 -83 -78 -143 -176 -143z" />
    <glyph glyph-name="Ubreve" unicode="&#x16c;" horiz-adv-x="692" 
d="M343 -13c-181 0 -263 111 -235 276l73 437h141l-73 -437c-15 -89 26 -145 116 -145s151 56 166 145l73 437h141l-73 -437c-28 -165 -148 -276 -329 -276zM477 741c-96 0 -141 60 -127 143h96c-5 -31 1 -62 42 -62c42 0 58 31 63 62h102c-14 -83 -78 -143 -176 -143z" />
    <glyph glyph-name="umacron" unicode="&#x16b;" horiz-adv-x="556" 
d="M228 -13c-149 0 -160 123 -141 234l51 302h137l-53 -318c-10 -58 24 -94 71 -94c57 0 101 42 110 98l53 314h137l-87 -523h-135l10 61c-28 -36 -85 -74 -153 -74zM249 603l17 101h268l-17 -101h-268z" />
    <glyph glyph-name="Umacron" unicode="&#x16a;" horiz-adv-x="692" 
d="M343 -13c-181 0 -263 111 -235 276l73 437h141l-73 -437c-15 -89 26 -145 116 -145s151 56 166 145l73 437h141l-73 -437c-28 -165 -148 -276 -329 -276zM340 751l17 101h268l-17 -101h-268z" />
    <glyph glyph-name="utilde" unicode="&#x169;" horiz-adv-x="556" 
d="M228 -13c-149 0 -160 123 -141 234l51 302h137l-53 -318c-10 -58 24 -94 71 -94c57 0 101 42 110 98l53 314h137l-87 -523h-135l10 61c-28 -36 -85 -74 -153 -74zM446 587c-53 0 -85 37 -119 37c-20 0 -34 -14 -38 -38h-88c13 80 65 134 133 134c55 0 85 -37 117 -37
c20 0 35 15 39 38h88c-14 -82 -65 -134 -132 -134z" />
    <glyph glyph-name="Utilde" unicode="&#x168;" horiz-adv-x="692" 
d="M343 -13c-181 0 -263 111 -235 276l73 437h141l-73 -437c-15 -89 26 -145 116 -145s151 56 166 145l73 437h141l-73 -437c-28 -165 -148 -276 -329 -276zM547 744c-53 0 -85 37 -119 37c-20 0 -34 -14 -38 -38h-88c13 80 65 134 133 134c55 0 85 -37 117 -37
c20 0 35 15 39 38h88c-14 -82 -65 -134 -132 -134z" />
    <glyph glyph-name="Tbar" unicode="&#x166;" horiz-adv-x="511" 
d="M123 310l17 103h116l27 160h-164l21 127h468l-21 -127h-163l-27 -160h115l-17 -103h-115l-52 -310h-141l52 310h-116z" />
    <glyph glyph-name="scaron" unicode="&#x161;" horiz-adv-x="435" 
d="M212 -13c-103 0 -159 52 -179 97l93 72c21 -30 52 -57 111 -57c43 0 72 20 72 52c0 69 -211 51 -211 205c0 113 101 180 219 180c99 0 145 -52 163 -93l-102 -68c-13 20 -37 50 -86 50c-35 0 -62 -19 -62 -47c0 -72 213 -46 213 -200c0 -117 -107 -191 -231 -191z
M330 653l61 71h121l-118 -140h-142l-72 140h113z" />
    <glyph glyph-name="Scaron" unicode="&#x160;" horiz-adv-x="521" 
d="M374 713c141 0 190 -102 199 -153l-121 -53c-10 33 -33 76 -94 76c-54 0 -88 -34 -88 -75c0 -101 255 -112 255 -294c0 -133 -96 -227 -260 -227c-150 0 -208 105 -218 162l125 58c11 -46 47 -89 110 -89c59 0 96 33 96 81c0 104 -252 106 -252 292c0 124 98 222 248 222
zM390 808l61 71h121l-118 -140h-142l-72 140h113z" />
    <glyph glyph-name="Itilde" unicode="&#x128;" horiz-adv-x="275" 
d="M67 0l117 700h141l-117 -700h-141zM331 744c-53 0 -85 37 -119 37c-20 0 -34 -14 -38 -38h-88c13 80 65 134 133 134c55 0 85 -37 117 -37c20 0 35 15 39 38h88c-14 -82 -65 -134 -132 -134z" />
    <glyph glyph-name="Imacron" unicode="&#x12a;" horiz-adv-x="275" 
d="M67 0l117 700h141l-117 -700h-141zM130 751l17 101h268l-17 -101h-268z" />
    <glyph glyph-name="Kcommaaccent" unicode="&#x136;" horiz-adv-x="615" 
d="M67 0l117 700h141l-53 -320l280 320h162l-303 -346l194 -354h-158l-182 340l-57 -340h-141zM206 -240c20 14 49 39 64 65c-33 7 -48 35 -48 62c0 46 43 84 88 84c40 0 66 -28 66 -71c0 -72 -56 -147 -127 -191z" />
    <glyph glyph-name="kgreenlandic" unicode="&#x138;" horiz-adv-x="532" 
d="M54 0l88 523h138l-38 -225l206 225h155l-225 -242l151 -281h-162l-131 265l-44 -265h-138z" />
    <glyph glyph-name="kcommaaccent" unicode="&#x137;" horiz-adv-x="532" 
d="M54 0l121 723h138l-70 -420l205 220h155l-224 -240l150 -283h-158l-134 270l-45 -270h-138zM160 -240c20 14 49 39 64 65c-33 7 -48 35 -48 62c0 46 43 84 88 84c40 0 66 -28 66 -71c0 -72 -56 -147 -127 -191z" />
    <glyph glyph-name="Ibreve" unicode="&#x12c;" horiz-adv-x="275" 
d="M67 0l117 700h141l-117 -700h-141zM264 741c-96 0 -141 60 -127 143h96c-5 -31 1 -62 42 -62c42 0 58 31 63 62h102c-14 -83 -78 -143 -176 -143z" />
    <glyph glyph-name="dotlessj" unicode="&#x237;" 
d="M53 -1l88 524h138l-89 -530c-23 -138 -117 -184 -230 -184c-16 0 -34 2 -34 2l20 117s13 -2 23 -2c50 0 77 26 84 73z" />
    <glyph glyph-name="jcircumflex" unicode="&#x135;" 
d="M53 -1l88 524h138l-89 -530c-23 -138 -117 -184 -230 -184c-16 0 -34 2 -34 2l20 117s13 -2 23 -2c50 0 77 26 84 73zM273 584l-37 71l-61 -71h-118l118 140h142l72 -140h-116z" />
    <glyph glyph-name="Jcircumflex" unicode="&#x134;" horiz-adv-x="374" 
d="M21 4l37 125c8 -1 31 -6 57 -6c48 0 76 29 84 76l84 501h140l-88 -526c-22 -130 -116 -180 -224 -180c-38 0 -63 4 -90 10zM399 739l-37 71l-61 -71h-118l118 140h142l72 -140h-116z" />
    <glyph glyph-name="ij" unicode="&#x133;" horiz-adv-x="494" 
d="M54 0l88 523h138l-88 -523h-138zM149 638c0 50 45 90 95 90c41 0 69 -29 69 -68c0 -50 -45 -90 -96 -90c-40 0 -68 29 -68 68zM300 -1l88 524h138l-89 -530c-23 -138 -117 -184 -230 -184c-16 0 -34 2 -34 2l20 117s13 -2 23 -2c50 0 77 26 84 73zM396 638
c0 50 44 90 94 90c41 0 69 -29 69 -68c0 -50 -44 -90 -95 -90c-40 0 -68 29 -68 68z" />
    <glyph glyph-name="IJ" unicode="&#x132;" horiz-adv-x="649" 
d="M67 0l117 700h141l-117 -700h-141zM297 4l37 125c8 -1 31 -6 57 -6c48 0 76 29 84 76l84 501h140l-88 -526c-22 -130 -116 -180 -224 -180c-38 0 -63 4 -90 10z" />
    <glyph glyph-name="Idotaccent" unicode="&#x130;" horiz-adv-x="275" 
d="M67 0l117 700h141l-117 -700h-141zM194 798c0 50 45 90 95 90c41 0 69 -29 69 -68c0 -50 -45 -90 -96 -90c-40 0 -68 29 -68 68z" />
    <glyph glyph-name="Rcommaaccent" unicode="&#x156;" horiz-adv-x="585" 
d="M67 0l117 700h211c136 0 206 -78 206 -178c0 -97 -59 -174 -141 -215l115 -307h-156l-90 274h-75l-46 -274h-141zM274 393h66c57 0 113 38 113 109c0 47 -32 76 -89 76h-59zM183 -240c20 14 49 39 64 65c-33 7 -48 35 -48 62c0 46 43 84 88 84c40 0 66 -28 66 -71
c0 -72 -56 -147 -127 -191z" />
    <glyph glyph-name="rcommaaccent" unicode="&#x157;" horiz-adv-x="360" 
d="M423 536l-24 -140c-103 0 -152 -64 -169 -168l-38 -228h-138l88 523h135l-13 -76c32 52 90 89 159 89zM38 -240c20 14 49 39 64 65c-33 7 -48 35 -48 62c0 46 43 84 88 84c40 0 66 -28 66 -71c0 -72 -56 -147 -127 -191z" />
    <glyph glyph-name="scircumflex" unicode="&#x15d;" horiz-adv-x="435" 
d="M212 -13c-103 0 -159 52 -179 97l93 72c21 -30 52 -57 111 -57c43 0 72 20 72 52c0 69 -211 51 -211 205c0 113 101 180 219 180c99 0 145 -52 163 -93l-102 -68c-13 20 -37 50 -86 50c-35 0 -62 -19 -62 -47c0 -72 213 -46 213 -200c0 -117 -107 -191 -231 -191z
M377 584l-37 71l-61 -71h-118l118 140h142l72 -140h-116z" />
    <glyph glyph-name="Scircumflex" unicode="&#x15c;" horiz-adv-x="521" 
d="M374 713c141 0 190 -102 199 -153l-121 -53c-10 33 -33 76 -94 76c-54 0 -88 -34 -88 -75c0 -101 255 -112 255 -294c0 -133 -96 -227 -260 -227c-150 0 -208 105 -218 162l125 58c11 -46 47 -89 110 -89c59 0 96 33 96 81c0 104 -252 106 -252 292c0 124 98 222 248 222
zM438 739l-37 71l-61 -71h-118l118 140h142l72 -140h-116z" />
    <glyph glyph-name="sacute" unicode="&#x15b;" horiz-adv-x="435" 
d="M212 -13c-103 0 -159 52 -179 97l93 72c21 -30 52 -57 111 -57c43 0 72 20 72 52c0 69 -211 51 -211 205c0 113 101 180 219 180c99 0 145 -52 163 -93l-102 -68c-13 20 -37 50 -86 50c-35 0 -62 -19 -62 -47c0 -72 213 -46 213 -200c0 -117 -107 -191 -231 -191z
M245 581l91 144h145l-121 -144h-115z" />
    <glyph glyph-name="Sacute" unicode="&#x15a;" horiz-adv-x="521" 
d="M374 713c141 0 190 -102 199 -153l-121 -53c-10 33 -33 76 -94 76c-54 0 -88 -34 -88 -75c0 -101 255 -112 255 -294c0 -133 -96 -227 -260 -227c-150 0 -208 105 -218 162l125 58c11 -46 47 -89 110 -89c59 0 96 33 96 81c0 104 -252 106 -252 292c0 124 98 222 248 222
zM312 738l91 144h145l-121 -144h-115z" />
    <glyph glyph-name="rcaron" unicode="&#x159;" horiz-adv-x="360" 
d="M423 536l-24 -140c-103 0 -152 -64 -169 -168l-38 -228h-138l88 523h135l-13 -76c32 52 90 89 159 89zM286 653l61 71h121l-118 -140h-142l-72 140h113z" />
    <glyph glyph-name="Rcaron" unicode="&#x158;" horiz-adv-x="585" 
d="M67 0l117 700h211c136 0 206 -78 206 -178c0 -97 -59 -174 -141 -215l115 -307h-156l-90 274h-75l-46 -274h-141zM274 393h66c57 0 113 38 113 109c0 47 -32 76 -89 76h-59zM399 808l61 71h121l-118 -140h-142l-72 140h113z" />
    <glyph glyph-name="racute" unicode="&#x155;" horiz-adv-x="360" 
d="M423 536l-24 -140c-103 0 -152 -64 -169 -168l-38 -228h-138l88 523h135l-13 -76c32 52 90 89 159 89zM211 581l91 144h145l-121 -144h-115z" />
    <glyph glyph-name="Racute" unicode="&#x154;" horiz-adv-x="585" 
d="M67 0l117 700h211c136 0 206 -78 206 -178c0 -97 -59 -174 -141 -215l115 -307h-156l-90 274h-75l-46 -274h-141zM274 393h66c57 0 113 38 113 109c0 47 -32 76 -89 76h-59zM321 738l91 144h145l-121 -144h-115z" />
    <glyph glyph-name="ohungarumlaut" unicode="&#x151;" horiz-adv-x="613" 
d="M64 219c0 179 155 317 332 317c143 0 240 -100 240 -236c0 -177 -149 -313 -332 -313c-145 0 -240 97 -240 232zM204 235c0 -74 48 -126 120 -126c94 0 172 75 172 176c0 75 -48 129 -121 129c-93 0 -171 -77 -171 -179zM439 581l92 144h132l-120 -144h-104zM265 581
l91 144h133l-121 -144h-103z" />
    <glyph glyph-name="Ohungarumlaut" unicode="&#x150;" horiz-adv-x="788" 
d="M392 -13c-191 0 -309 132 -309 308c0 229 191 418 431 418c191 0 308 -134 308 -309c0 -230 -190 -417 -430 -417zM491 581c-141 0 -259 -119 -259 -269c0 -112 71 -193 182 -193c142 0 260 117 260 268c0 112 -71 194 -183 194zM538 738l92 144h132l-120 -144h-104z
M364 738l91 144h133l-121 -144h-103z" />
    <glyph glyph-name="Obreve" unicode="&#x14e;" horiz-adv-x="788" 
d="M392 -13c-191 0 -309 132 -309 308c0 229 191 418 431 418c191 0 308 -134 308 -309c0 -230 -190 -417 -430 -417zM491 581c-141 0 -259 -119 -259 -269c0 -112 71 -193 182 -193c142 0 260 117 260 268c0 112 -71 194 -183 194zM518 741c-96 0 -141 60 -127 143h96
c-5 -31 1 -62 42 -62c42 0 58 31 63 62h102c-14 -83 -78 -143 -176 -143z" />
    <glyph glyph-name="omacron" unicode="&#x14d;" horiz-adv-x="613" 
d="M64 219c0 179 155 317 332 317c143 0 240 -100 240 -236c0 -177 -149 -313 -332 -313c-145 0 -240 97 -240 232zM204 235c0 -74 48 -126 120 -126c94 0 172 75 172 176c0 75 -48 129 -121 129c-93 0 -171 -77 -171 -179zM274 603l17 101h268l-17 -101h-268z" />
    <glyph glyph-name="Lacute" unicode="&#x139;" horiz-adv-x="455" 
d="M67 0l117 700h141l-96 -573h228l-21 -127h-369zM203 738l91 144h145l-121 -144h-115z" />
    <glyph glyph-name="lacute" unicode="&#x13a;" 
d="M54 0l121 723h138l-121 -723h-138zM185 750l91 144h145l-121 -144h-115z" />
    <glyph glyph-name="lcommaaccent" unicode="&#x13c;" 
d="M54 0l121 723h138l-121 -723h-138zM12 -240c20 14 49 39 64 65c-33 7 -48 35 -48 62c0 46 43 84 88 84c40 0 66 -28 66 -71c0 -72 -56 -147 -127 -191z" />
    <glyph glyph-name="Lcommaaccent" unicode="&#x13b;" horiz-adv-x="455" 
d="M67 0l117 700h141l-96 -573h228l-21 -127h-369zM141 -240c20 14 49 39 64 65c-33 7 -48 35 -48 62c0 46 43 84 88 84c40 0 66 -28 66 -71c0 -72 -56 -147 -127 -191z" />
    <glyph glyph-name="Lcaron" unicode="&#x13d;" horiz-adv-x="455" 
d="M363 526l36 174h130l-75 -174h-91zM67 0l117 700h141l-96 -573h228l-21 -127h-369z" />
    <glyph glyph-name="lcaron" unicode="&#x13e;" 
d="M316 549l36 174h130l-75 -174h-91zM54 0l121 723h138l-121 -723h-138z" />
    <glyph glyph-name="ldot" unicode="&#x140;" horiz-adv-x="403" 
d="M54 0l121 723h138l-121 -723h-138zM359 269c-43 0 -72 32 -72 73c0 51 48 97 101 97c43 0 71 -33 71 -74c0 -52 -47 -96 -100 -96z" />
    <glyph glyph-name="Ldot" unicode="&#x13f;" horiz-adv-x="455" 
d="M67 0l117 700h141l-96 -573h228l-21 -127h-369zM406 283c-43 0 -72 32 -72 73c0 51 48 97 101 97c43 0 71 -33 71 -74c0 -52 -47 -96 -100 -96z" />
    <glyph glyph-name="Lslash" unicode="&#x141;" horiz-adv-x="455" 
d="M43 191l22 132l61 32l58 345h141l-45 -267l119 62l-23 -136l-118 -60l-29 -173h228l-21 -126h-369l38 224z" />
    <glyph glyph-name="lslash" unicode="&#x142;" horiz-adv-x="294" 
d="M61 238l22 132l58 32l54 321h138l-40 -240l67 37l-22 -137l-68 -37l-58 -346h-138l45 270z" />
    <glyph glyph-name="Omacron" unicode="&#x14c;" horiz-adv-x="788" 
d="M392 -13c-191 0 -309 132 -309 308c0 229 191 418 431 418c191 0 308 -134 308 -309c0 -230 -190 -417 -430 -417zM491 581c-141 0 -259 -119 -259 -269c0 -112 71 -193 182 -193c142 0 260 117 260 268c0 112 -71 194 -183 194zM386 751l17 101h268l-17 -101h-268z" />
    <glyph glyph-name="Nacute" unicode="&#x143;" horiz-adv-x="713" 
d="M507 0l-222 476l-80 -476h-139l117 700h143l219 -480l80 480h139l-117 -700h-140zM419 738l91 144h145l-121 -144h-115z" />
    <glyph glyph-name="nacute" unicode="&#x144;" horiz-adv-x="560" 
d="M419 536c149 0 161 -123 142 -234l-51 -302h-138l53 318c10 58 -24 94 -71 94c-57 0 -100 -42 -109 -98l-53 -314h-138l88 523h135l-11 -61c28 36 85 74 153 74zM313 581l91 144h145l-121 -144h-115z" />
    <glyph glyph-name="Ncommaaccent" unicode="&#x145;" horiz-adv-x="713" 
d="M507 0l-222 476l-80 -476h-139l117 700h143l219 -480l80 480h139l-117 -700h-140zM245 -240c20 14 49 39 64 65c-33 7 -48 35 -48 62c0 46 43 84 88 84c40 0 66 -28 66 -71c0 -72 -56 -147 -127 -191z" />
    <glyph glyph-name="ncommaaccent" unicode="&#x146;" horiz-adv-x="560" 
d="M419 536c149 0 161 -123 142 -234l-51 -302h-138l53 318c10 58 -24 94 -71 94c-57 0 -100 -42 -109 -98l-53 -314h-138l88 523h135l-11 -61c28 36 85 74 153 74zM169 -240c20 14 49 39 64 65c-33 7 -48 35 -48 62c0 46 43 84 88 84c40 0 66 -28 66 -71
c0 -72 -56 -147 -127 -191z" />
    <glyph glyph-name="Ncaron" unicode="&#x147;" horiz-adv-x="713" 
d="M507 0l-222 476l-80 -476h-139l117 700h143l219 -480l80 480h139l-117 -700h-140zM493 808l61 71h121l-118 -140h-142l-72 140h113z" />
    <glyph glyph-name="ncaron" unicode="&#x148;" horiz-adv-x="560" 
d="M419 536c149 0 161 -123 142 -234l-51 -302h-138l53 318c10 58 -24 94 -71 94c-57 0 -100 -42 -109 -98l-53 -314h-138l88 523h135l-11 -61c28 36 85 74 153 74zM388 653l61 71h121l-118 -140h-142l-72 140h113z" />
    <glyph glyph-name="napostrophe" unicode="&#x149;" horiz-adv-x="636" 
d="M494 536c149 0 161 -123 142 -234l-51 -302h-138l53 318c10 58 -24 94 -71 94c-57 0 -100 -42 -109 -98l-53 -314h-138l88 523h135l-11 -61c28 36 85 74 153 74zM59 517c20 14 49 39 64 65c-33 7 -48 35 -48 62c0 46 43 84 88 84c40 0 66 -28 66 -71
c0 -72 -56 -147 -127 -191z" />
    <glyph glyph-name="gcommaaccent" unicode="&#x123;" horiz-adv-x="615" 
d="M68 -144l60 106c16 -9 71 -36 143 -36c75 0 148 23 162 104l4 24c-14 -15 -74 -67 -165 -67c-132 0 -209 92 -209 225c0 186 138 324 306 324c88 0 133 -48 145 -68l9 55h130l-76 -457c-33 -195 -171 -258 -325 -258c-72 0 -141 22 -184 48zM478 289
c0 74 -42 125 -112 125c-89 0 -162 -74 -162 -180c0 -75 44 -125 112 -125c92 0 162 75 162 180zM503 782c-20 -14 -49 -39 -64 -65c33 -7 48 -35 48 -62c0 -46 -43 -84 -88 -84c-40 0 -66 28 -66 71c0 72 56 147 127 191z" />
    <glyph glyph-name="iacute" unicode="&#xed;" 
d="M145 581l91 144h145l-121 -144h-115zM54 0l88 523h138l-88 -523h-138z" />
    <glyph glyph-name="idieresis" unicode="&#xef;" 
d="M129 585c-36 0 -58 25 -58 58c0 42 37 78 81 78c35 0 57 -26 57 -59c0 -42 -37 -77 -80 -77zM321 585c-36 0 -58 25 -58 58c0 41 35 78 81 78c35 0 57 -26 57 -59c0 -42 -37 -77 -80 -77zM54 0l88 523h138l-88 -523h-138z" />
    <glyph glyph-name="icircumflex" unicode="&#xee;" 
d="M54 0l88 523h138l-88 -523h-138zM275 584l-37 71l-61 -71h-118l118 140h142l72 -140h-116z" />
    <glyph glyph-name="igrave" unicode="&#xec;" 
d="M252 725l43 -144h-111l-78 144h146zM54 0l88 523h138l-88 -523h-138z" />
    <glyph glyph-name="itilde" unicode="&#x129;" horiz-adv-x="246" 
d="M291 587c-53 0 -85 37 -119 37c-20 0 -34 -14 -38 -38h-88c13 80 65 134 133 134c55 0 85 -37 117 -37c20 0 35 15 39 38h88c-14 -82 -65 -134 -132 -134zM54 0l88 523h138l-88 -523h-138z" />
    <glyph glyph-name="ibreve" unicode="&#x12d;" horiz-adv-x="246" 
d="M223 581c-96 0 -141 60 -127 143h96c-5 -31 1 -62 42 -62c42 0 58 31 63 62h102c-14 -83 -78 -143 -176 -143zM54 0l88 523h138l-88 -523h-138z" />
    <glyph glyph-name="imacron" unicode="&#x12b;" 
d="M91 603l17 101h268l-17 -101h-268zM54 0l88 523h138l-88 -523h-138z" />
    <glyph glyph-name="OE" unicode="&#x152;" horiz-adv-x="1027" 
d="M392 -13c-191 0 -309 132 -309 308c0 229 191 418 431 418c36 0 69 -5 99 -13h476l-21 -127h-292c28 -43 44 -97 44 -156h191l-21 -125h-188c-19 -64 -53 -120 -97 -166h297l-21 -126h-485c-33 -8 -68 -13 -104 -13zM491 581c-141 0 -259 -119 -259 -269
c0 -112 71 -193 182 -193c142 0 260 117 260 268c0 112 -71 194 -183 194z" />
    <glyph glyph-name="obreve" unicode="&#x14f;" horiz-adv-x="613" 
d="M64 219c0 179 155 317 332 317c143 0 240 -100 240 -236c0 -177 -149 -313 -332 -313c-145 0 -240 97 -240 232zM204 235c0 -74 48 -126 120 -126c94 0 172 75 172 176c0 75 -48 129 -121 129c-93 0 -171 -77 -171 -179zM400 581c-96 0 -141 60 -127 143h96
c-5 -31 1 -62 42 -62c42 0 58 31 63 62h102c-14 -83 -78 -143 -176 -143z" />
    <glyph glyph-name="dollar" unicode="$" horiz-adv-x="521" 
d="M294 -85h-86l12 76c-117 18 -164 107 -173 158l125 58c11 -46 47 -89 110 -89c59 0 96 33 96 81c0 104 -252 106 -252 292c0 115 84 207 216 220l8 55h86l-9 -59c101 -22 138 -103 146 -147l-121 -53c-10 33 -33 76 -94 76c-54 0 -88 -34 -88 -75
c0 -101 255 -112 255 -294c0 -122 -80 -211 -219 -225z" />
    <glyph glyph-name="cent" unicode="&#xa2;" horiz-adv-x="490" 
d="M343 185c53 0 100 28 126 47l21 -113c-28 -20 -72 -44 -130 -53l-10 -66h-87l10 66c-121 16 -196 106 -196 228c0 166 129 296 288 315l15 91h87l-15 -92c51 -9 86 -32 109 -52l-57 -116c-20 21 -56 50 -115 50c-100 0 -172 -83 -172 -177c0 -75 49 -128 126 -128z" />
    <glyph glyph-name="Aogonek" unicode="&#x104;" horiz-adv-x="660" 
d="M463 -124c0 66 61 109 97 124h-50l-31 180h-238l-91 -180h-142l365 700h148l131 -700c-14 -5 -66 -28 -66 -69c0 -23 23 -35 46 -35l-17 -98c-7 -2 -22 -4 -35 -4c-57 0 -117 17 -117 82zM462 297l-40 252l-123 -252h163z" />
    <glyph glyph-name="ae" unicode="&#xe6;" horiz-adv-x="870" 
d="M188 157c0 -38 33 -63 80 -63c58 0 102 33 102 83c0 39 -31 62 -78 62c-59 0 -104 -35 -104 -82zM535 317h224c7 64 -31 106 -95 106s-113 -46 -129 -106zM681 536c139 0 215 -86 215 -223c0 -37 -9 -76 -12 -86h-368c-9 -70 37 -120 115 -120c71 0 118 42 137 64l83 -69
c-27 -37 -112 -115 -242 -115c-89 0 -156 31 -193 87c-39 -48 -100 -87 -199 -87c-95 0 -169 56 -169 150c0 116 99 198 235 198c53 0 91 -16 107 -29l6 34c8 46 -21 77 -82 77c-52 0 -103 -17 -145 -37c-13 31 -24 63 -36 94c54 32 129 62 216 62c83 0 132 -26 156 -66
c49 42 111 66 176 66z" />
    <glyph glyph-name="Oslash" unicode="&#xd8;" horiz-adv-x="788" 
d="M392 -13c-72 0 -133 18 -181 50l-59 -61l-65 60l59 61c-41 53 -63 121 -63 198c0 229 191 418 431 418c69 0 129 -18 176 -49l58 60l66 -60l-57 -60c42 -53 65 -123 65 -200c0 -230 -190 -417 -430 -417zM674 387c0 39 -9 75 -26 105l-333 -347c27 -17 61 -26 99 -26
c142 0 260 117 260 268zM491 581c-141 0 -259 -119 -259 -269c0 -38 8 -72 23 -101l332 345c-27 16 -59 25 -96 25z" />
    <glyph glyph-name="yen" unicode="&#xa5;" horiz-adv-x="584" 
d="M225 0l26 158h-154l15 91h154l12 71h-154l15 91h103l-115 289h157l84 -251l168 251h161l-212 -289h95l-15 -91h-147l-12 -71h147l-15 -91h-147l-26 -158h-140z" />
    <glyph glyph-name="oslash" unicode="&#xf8;" horiz-adv-x="613" 
d="M64 219c0 179 155 317 332 317c50 0 95 -13 132 -35l47 49l58 -51l-47 -49c32 -40 50 -92 50 -150c0 -177 -149 -313 -332 -313c-50 0 -94 12 -130 32l-49 -51l-57 51l47 49c-33 39 -51 91 -51 151zM204 235c0 -23 4 -43 12 -61l216 227c-16 8 -36 13 -57 13
c-93 0 -171 -77 -171 -179zM496 285c0 21 -4 41 -12 58l-214 -223c16 -7 34 -11 54 -11c94 0 172 75 172 176z" />
    <glyph glyph-name="hyphen.caps" horiz-adv-x="369" 
d="M93 289l21 124h278l-21 -124h-278z" />
    <glyph glyph-name="endash.caps" horiz-adv-x="648" 
d="M95 297l19 113h558l-19 -113h-558z" />
    <glyph glyph-name="emdash.caps" horiz-adv-x="918" 
d="M95 297l19 113h827l-19 -113h-827z" />
    <glyph glyph-name="guillemotleft.caps" horiz-adv-x="490" 
d="M179 170l-91 187l147 188h129l-152 -193l90 -182h-123zM367 170l-91 187l147 188h129l-152 -193l90 -182h-123z" />
    <glyph glyph-name="guillemotright.caps" horiz-adv-x="490" 
d="M429 545l91 -187l-147 -188h-129l152 193l-90 182h123zM241 545l91 -187l-147 -188h-129l152 193l-90 182h123z" />
    <glyph glyph-name="guilsinglleft.caps" horiz-adv-x="302" 
d="M179 170l-91 187l147 188h129l-152 -193l90 -182h-123z" />
    <glyph glyph-name="guilsinglright.caps" horiz-adv-x="302" 
d="M241 545l91 -187l-147 -188h-129l152 193l-90 182h123z" />
    <glyph glyph-name="parenleft.caps" horiz-adv-x="332" 
d="M287 628l-93 -558c-9 -51 9 -85 72 -85l-20 -119c-152 0 -211 74 -188 211l91 543c23 137 106 212 258 212l-20 -119c-63 0 -91 -34 -100 -85z" />
    <glyph glyph-name="parenright.caps" horiz-adv-x="333" 
d="M162 70l93 558c9 51 -8 85 -71 85l20 119c152 0 210 -75 187 -212l-91 -543c-23 -137 -106 -211 -258 -211l20 119c63 0 91 34 100 85z" />
    <glyph glyph-name="bracketleft.caps" horiz-adv-x="332" 
d="M23 -134l162 966h223l-20 -119h-86l-122 -728h86l-20 -119h-223z" />
    <glyph glyph-name="bracketright.caps" horiz-adv-x="334" 
d="M427 832l-162 -966h-223l20 119h86l122 728h-86l20 119h223z" />
    <glyph glyph-name="braceleft.caps" horiz-adv-x="388" 
d="M217 349c18 -4 72 -38 57 -130l-25 -149c-9 -51 9 -85 73 -85l-20 -119c-153 0 -211 75 -188 212l18 108c13 80 -20 99 -56 99l22 129c38 0 76 19 89 99l18 107c23 137 106 212 259 212l-20 -119c-64 0 -94 -34 -102 -85l-24 -148c-15 -93 -81 -126 -101 -131z" />
    <glyph glyph-name="bar.caps" horiz-adv-x="282" 
d="M42 -205l177 1059h130l-177 -1059h-130z" />
    <glyph glyph-name="braceright.caps" horiz-adv-x="388" 
d="M289 349c-18 5 -72 38 -57 131l24 148c9 51 -8 85 -72 85l20 119c153 0 210 -75 187 -212l-18 -107c-13 -80 19 -99 57 -99l-22 -129c-36 0 -75 -19 -89 -99l-19 -108c-24 -137 -105 -212 -258 -212l20 119c64 0 92 34 101 85l25 149c15 92 81 126 101 130z" />
    <glyph glyph-name="slash.caps" horiz-adv-x="452" 
d="M0 -81l445 858h124l-445 -858h-124z" />
    <glyph glyph-name="backslash.caps" horiz-adv-x="452" 
d="M266 777l157 -858h-121l-157 858h121z" />
    <glyph glyph-name="exclamdown.caps" horiz-adv-x="292" 
d="M73 0l95 501h124l-73 -501h-146zM265 713c43 0 72 -32 72 -73c0 -51 -47 -97 -100 -97c-43 0 -72 33 -72 74c0 52 47 96 100 96z" />
    <glyph glyph-name="questiondown.caps" horiz-adv-x="482" 
d="M414 501l-8 -49c-23 -142 -205 -168 -205 -273c0 -34 25 -65 73 -65c55 0 84 36 99 62l108 -49c-28 -55 -102 -140 -230 -140c-117 0 -194 69 -194 167c0 173 199 201 217 306l7 41h133zM383 713c43 0 72 -32 72 -73c0 -51 -47 -97 -100 -97c-43 0 -72 33 -72 74
c0 52 47 96 100 96z" />
    <glyph glyph-name="periodcentered.caps" horiz-adv-x="249" 
d="M169 270c-43 0 -72 32 -72 73c0 51 48 97 101 97c43 0 71 -33 71 -74c0 -52 -47 -96 -100 -96z" />
    <glyph glyph-name="bullet.caps" horiz-adv-x="406" 
d="M234 182c-89 0 -146 65 -146 147c0 107 94 197 203 197c89 0 146 -65 146 -147c0 -107 -93 -197 -203 -197z" />
    <glyph glyph-name="zero.tab" horiz-adv-x="581" 
d="M591 350c-38 -239 -124 -363 -300 -363c-175 0 -221 124 -183 363c37 238 123 363 298 363c176 0 222 -125 185 -363zM251 350c-24 -149 -24 -231 61 -231c86 0 112 82 136 231c23 148 23 231 -63 231c-85 0 -111 -83 -134 -231z" />
    <glyph glyph-name="one.tab" horiz-adv-x="581" 
d="M77 0l21 123h178l73 437l-160 -64l-33 107l236 97h119l-96 -577h130l-21 -123h-447z" />
    <glyph glyph-name="two.tab" horiz-adv-x="581" 
d="M61 0l9 56c35 218 385 318 385 456c0 43 -28 71 -77 71c-57 0 -93 -38 -113 -82l-121 36c28 70 102 176 254 176c119 0 204 -72 204 -180c0 -213 -309 -302 -353 -410h294l-21 -123h-461z" />
    <glyph glyph-name="three.tab" horiz-adv-x="581" 
d="M290 -13c-152 0 -202 98 -208 172l127 38c7 -44 35 -81 95 -81c65 0 115 46 115 110c0 47 -33 81 -100 81h-77l18 109l167 160h-248l21 124h414l-21 -124l-171 -154c77 -11 143 -74 143 -171c0 -151 -122 -264 -275 -264z" />
    <glyph glyph-name="four.tab" horiz-adv-x="581" 
d="M51 163l17 101l360 436h164l-70 -417h82l-20 -120h-82l-27 -163h-139l27 163h-312zM216 283h167l44 260z" />
    <glyph glyph-name="five.tab" horiz-adv-x="581" 
d="M332 338c-42 0 -72 -22 -89 -38l-114 20l79 380h395l-21 -124h-270l-30 -143c34 17 68 24 104 24c106 0 186 -76 186 -187c0 -157 -121 -283 -278 -283c-150 0 -208 98 -215 172l128 38c5 -48 37 -81 96 -81c69 0 123 57 123 128c0 48 -28 94 -94 94z" />
    <glyph glyph-name="six.tab" horiz-adv-x="581" 
d="M317 119c73 0 116 54 116 133c0 51 -26 88 -82 88c-41 0 -80 -22 -110 -55c-15 -87 -19 -166 76 -166zM456 713c81 0 130 -28 156 -46l-73 -114c-18 13 -49 28 -97 28c-117 0 -167 -98 -180 -160c24 18 79 45 141 45c105 0 172 -68 172 -186c0 -170 -114 -293 -276 -293
c-151 0 -208 95 -208 228c0 179 62 498 365 498z" />
    <glyph glyph-name="seven.tab" horiz-adv-x="581" 
d="M173 700h468l-18 -107l-334 -593h-152l330 576h-315z" />
    <glyph glyph-name="eight.tab" horiz-adv-x="581" 
d="M287 -13c-133 0 -212 72 -212 184c0 109 73 174 127 201c-26 19 -55 61 -55 119c0 123 109 222 263 222c122 0 196 -71 196 -170c0 -89 -61 -146 -105 -171c37 -22 73 -69 73 -138c0 -145 -122 -247 -287 -247zM341 302c-70 0 -120 -46 -120 -108c0 -45 30 -79 88 -79
c76 0 120 50 120 107c0 47 -33 80 -88 80zM388 586c-64 0 -101 -43 -101 -92c0 -41 28 -69 74 -69c57 0 102 39 102 93c0 38 -25 68 -75 68z" />
    <glyph glyph-name="nine.tab" horiz-adv-x="588" 
d="M385 581c-73 0 -116 -54 -116 -133c0 -51 26 -88 82 -88c41 0 80 22 110 55c15 87 19 166 -76 166zM246 -13c-81 0 -130 28 -156 46l73 114c18 -13 49 -28 97 -28c117 0 167 98 180 160c-24 -18 -79 -45 -141 -45c-105 0 -172 68 -172 186c0 170 114 293 276 293
c151 0 208 -95 208 -228c0 -179 -62 -498 -365 -498z" />
    <glyph glyph-name="Eogonek" unicode="&#x118;" horiz-adv-x="481" 
d="M67 0l117 700h360l-21 -127h-219l-26 -156h188l-21 -125h-188l-28 -166h228l-21 -126c-14 -5 -66 -28 -66 -69c0 -23 23 -35 46 -35l-17 -98c-7 -2 -22 -4 -35 -4c-57 0 -117 17 -117 82c0 66 61 109 97 124h-277z" />
    <glyph glyph-name="numero" unicode="&#x2116;" horiz-adv-x="1148" 
d="M907 518c0 -39 26 -73 72 -73c56 0 101 47 101 97c0 40 -26 75 -72 75c-58 0 -101 -50 -101 -99zM806 505c0 108 98 208 218 208c97 0 157 -73 157 -158c0 -108 -97 -206 -218 -206c-97 0 -157 71 -157 156zM769 189l18 111h335l-18 -111h-335zM507 0l-222 476l-80 -476
h-139l117 700h143l219 -480l80 480h139l-117 -700h-140z" />
    <glyph glyph-name="dcroat" unicode="&#x111;" horiz-adv-x="620" 
d="M687 723l-11 -65h58l-15 -89h-58l-95 -569h-130l9 54c-17 -17 -77 -67 -166 -67c-132 0 -215 93 -215 228c0 181 127 321 299 321c90 0 134 -50 144 -68l16 101h-127l15 89h127l11 65h138zM479 290c0 78 -45 124 -112 124c-91 0 -162 -78 -162 -182
c0 -76 43 -123 111 -123c96 0 163 84 163 181z" />
    <glyph glyph-name="tbar" unicode="&#x167;" horiz-adv-x="333" 
d="M155 523l18 110h136l-18 -110h98l-19 -112h-98l-14 -80h90l-15 -91h-90l-5 -31c-13 -78 9 -94 62 -94c9 0 14 0 25 1l-20 -118s-22 -5 -60 -5c-125 0 -168 70 -144 212l6 35h-56l15 91h56l13 80h-55l19 112h56z" />
    <glyph glyph-name="Iogonek" unicode="&#x12e;" horiz-adv-x="275" 
d="M67 0l117 700h141l-117 -700c-14 -5 -66 -28 -66 -69c0 -23 23 -35 45 -35l-16 -98c-7 -2 -23 -4 -36 -4c-56 0 -116 17 -116 82c0 66 61 109 97 124h-49z" />
    <glyph glyph-name="iogonek" unicode="&#x12f;" 
d="M54 0l87 523h138l-87 -523c-14 -5 -66 -28 -66 -69c0 -23 23 -35 45 -35l-16 -98c-7 -2 -23 -4 -36 -4c-56 0 -116 17 -116 82c0 66 61 109 97 124h-46zM149 638c0 50 45 90 95 90c41 0 69 -29 69 -68c0 -50 -45 -90 -96 -90c-40 0 -68 29 -68 68z" />
    <glyph glyph-name="eng" unicode="&#x14b;" horiz-adv-x="560" 
d="M372 -1l53 319c10 58 -24 94 -71 94c-57 0 -100 -42 -109 -98l-53 -314h-138l88 523h135l-11 -61c28 36 85 74 153 74c149 0 160 -123 141 -234l-51 -309c-23 -138 -118 -184 -231 -184c-16 0 -34 2 -34 2l20 117s14 -2 24 -2c50 0 76 26 84 73z" />
    <glyph glyph-name="Eng" unicode="&#x14a;" horiz-adv-x="713" 
d="M331 -181l37 125c7 -1 31 -6 57 -6c44 0 71 26 81 66l-221 472l-80 -476h-139l117 700h143l219 -480l80 480h139l-119 -711c-22 -130 -116 -180 -224 -180c-38 0 -63 4 -90 10z" />
    <glyph glyph-name="hcircumflex" unicode="&#x125;" horiz-adv-x="562" 
d="M420 536c150 0 161 -123 142 -234l-51 -302h-137l53 318c10 58 -24 94 -71 94c-58 0 -102 -42 -111 -98l-53 -314h-138l121 723h138l-44 -261c28 36 83 74 151 74zM471 739l-37 71l-61 -71h-118l118 140h142l72 -140h-116z" />
    <glyph glyph-name="Hbar" unicode="&#x126;" horiz-adv-x="707" 
d="M67 0l86 511h-57l16 96h57l15 93h141l-15 -93h291l15 93h141l-15 -93h58l-16 -96h-58l-86 -511h-141l48 289h-291l-48 -289h-141zM278 416h291l16 95h-291z" />
    <glyph glyph-name="hbar" unicode="&#x127;" horiz-adv-x="562" 
d="M420 536c150 0 161 -123 142 -234l-51 -302h-137l53 318c10 58 -24 94 -71 94c-58 0 -102 -42 -111 -98l-53 -314h-138l96 575h-51l15 88h51l10 60h138l-10 -60h130l-15 -88h-130l-19 -113c28 36 83 74 151 74z" />
    <glyph glyph-name="Aringacute" unicode="&#x1fa;" horiz-adv-x="660" 
d="M481 180h-238l-91 -180h-144l352 676c-9 13 -14 32 -14 51c0 67 57 114 124 114c55 0 93 -34 93 -84c0 -32 -14 -60 -38 -81l127 -676h-140zM464 297l-40 252l-123 -252h163zM409 869l92 144h145l-122 -144h-115zM448 703c26 0 45 20 45 46c0 19 -12 32 -32 32
c-26 0 -46 -19 -46 -46c0 -19 12 -32 33 -32z" />
    <glyph glyph-name="aringacute" unicode="&#x1fb;" horiz-adv-x="526" 
d="M48 137c0 116 100 198 235 198c53 0 91 -16 108 -29l6 34c8 46 -21 77 -82 77c-52 0 -103 -17 -145 -37l-37 94c53 32 137 62 217 62c168 0 203 -88 183 -205l-55 -331h-122l-3 34c-32 -29 -75 -47 -135 -47c-96 0 -170 56 -170 150zM189 157c0 -38 32 -63 80 -63
c57 0 103 32 103 82c0 40 -32 63 -80 63c-58 0 -103 -35 -103 -82zM354 557c-53 0 -91 35 -91 85c0 66 58 113 125 113c55 0 93 -34 93 -84c0 -66 -58 -114 -127 -114zM365 617c27 0 46 20 46 46c0 19 -12 32 -33 32c-26 0 -45 -19 -45 -46c0 -19 12 -32 32 -32zM325 774
l91 144h145l-121 -144h-115z" />
    <glyph glyph-name="AEacute" unicode="&#x1fc;" horiz-adv-x="857" 
d="M8 0l474 700h438l-21 -127h-218l-26 -156h187l-21 -125h-187l-28 -166h227l-21 -126h-368l30 180h-193l-120 -180h-153zM529 563l-176 -266h141l44 266h-9zM569 738l91 144h145l-121 -144h-115z" />
    <glyph glyph-name="aeacute" unicode="&#x1fd;" horiz-adv-x="870" 
d="M188 157c0 -38 33 -63 80 -63c58 0 102 33 102 83c0 39 -31 62 -78 62c-59 0 -104 -35 -104 -82zM535 317h224c7 64 -31 106 -95 106s-113 -46 -129 -106zM681 536c139 0 215 -86 215 -223c0 -37 -9 -76 -12 -86h-368c-9 -70 37 -120 115 -120c71 0 118 42 137 64l83 -69
c-27 -37 -112 -115 -242 -115c-89 0 -156 31 -193 87c-39 -48 -100 -87 -199 -87c-95 0 -169 56 -169 150c0 116 99 198 235 198c53 0 91 -16 107 -29l6 34c8 46 -21 77 -82 77c-52 0 -103 -17 -145 -37c-13 31 -24 63 -36 94c54 32 129 62 216 62c83 0 132 -26 156 -66
c49 42 111 66 176 66zM460 581l91 144h145l-121 -144h-115z" />
    <glyph glyph-name="Oslashacute" unicode="&#x1fe;" horiz-adv-x="788" 
d="M392 -13c-72 0 -133 18 -181 50l-59 -61l-65 60l59 61c-41 53 -63 121 -63 198c0 229 191 418 431 418c69 0 129 -18 176 -49l58 60l66 -60l-57 -60c42 -53 65 -123 65 -200c0 -230 -190 -417 -430 -417zM674 387c0 39 -9 75 -26 105l-333 -347c27 -17 61 -26 99 -26
c142 0 260 117 260 268zM491 581c-141 0 -259 -119 -259 -269c0 -38 8 -72 23 -101l332 345c-27 16 -59 25 -96 25zM446 738l91 144h145l-121 -144h-115z" />
    <glyph glyph-name="oslashacute" unicode="&#x1ff;" horiz-adv-x="613" 
d="M64 219c0 179 155 317 332 317c50 0 95 -13 132 -35l47 49l58 -51l-47 -49c32 -40 50 -92 50 -150c0 -177 -149 -313 -332 -313c-50 0 -94 12 -130 32l-49 -51l-57 51l47 49c-33 39 -51 91 -51 151zM204 235c0 -23 4 -43 12 -61l216 227c-16 8 -36 13 -57 13
c-93 0 -171 -77 -171 -179zM496 285c0 21 -4 41 -12 58l-214 -223c16 -7 34 -11 54 -11c94 0 172 75 172 176zM330 581l91 144h145l-121 -144h-115z" />
    <glyph glyph-name="Wgrave" unicode="&#x1e80;" horiz-adv-x="975" 
d="M620 0l-51 483l-213 -483h-159l-71 700h154l33 -524l227 524h130l51 -524l210 524h153l-304 -700h-160zM616 882l43 -144h-111l-78 144h146z" />
    <glyph glyph-name="wgrave" unicode="&#x1e81;" horiz-adv-x="828" 
d="M510 0l-39 335l-154 -335h-154l-68 523h150l30 -371l162 371h130l37 -371l155 371h150l-245 -523h-154zM522 725l43 -144h-111l-78 144h146z" />
    <glyph glyph-name="Wacute" unicode="&#x1e82;" horiz-adv-x="976" 
d="M620 0l-51 483l-213 -483h-159l-71 700h154l33 -524l227 524h130l51 -524l210 524h153l-304 -700h-160zM549 738l91 144h145l-121 -144h-115z" />
    <glyph glyph-name="wacute" unicode="&#x1e83;" horiz-adv-x="828" 
d="M510 0l-39 335l-154 -335h-154l-68 523h150l30 -371l162 371h130l37 -371l155 371h150l-245 -523h-154zM456 581l91 144h145l-121 -144h-115z" />
    <glyph glyph-name="Wdieresis" unicode="&#x1e84;" horiz-adv-x="976" 
d="M620 0l-51 483l-213 -483h-159l-71 700h154l33 -524l227 524h130l51 -524l210 524h153l-304 -700h-160zM518 744c-36 0 -58 25 -58 58c0 42 37 78 81 78c35 0 57 -26 57 -59c0 -42 -37 -77 -80 -77zM710 744c-36 0 -58 25 -58 58c0 41 35 78 81 78c35 0 57 -26 57 -59
c0 -42 -37 -77 -80 -77z" />
    <glyph glyph-name="wdieresis" unicode="&#x1e85;" horiz-adv-x="828" 
d="M510 0l-39 335l-154 -335h-154l-68 523h150l30 -371l162 371h130l37 -371l155 371h150l-245 -523h-154zM415 585c-36 0 -58 25 -58 58c0 42 37 78 81 78c35 0 57 -26 57 -59c0 -42 -37 -77 -80 -77zM607 585c-36 0 -58 25 -58 58c0 41 35 78 81 78c35 0 57 -26 57 -59
c0 -42 -37 -77 -80 -77z" />
    <glyph glyph-name="Ygrave" unicode="&#x1ef2;" horiz-adv-x="584" 
d="M222 0l53 320l-151 380h157l84 -251l168 251h161l-279 -380l-53 -320h-140zM445 882l43 -144h-111l-78 144h146z" />
    <glyph glyph-name="ygrave" unicode="&#x1ef3;" horiz-adv-x="540" 
d="M237 -179h-132l105 192l-116 510h147l60 -341l174 341h146zM398 725l43 -144h-111l-78 144h146z" />
    <glyph glyph-name="Ccedilla" unicode="&#xc7;" horiz-adv-x="638" 
d="M291 -233c-20 0 -47 6 -56 9l28 71c8 -2 19 -5 32 -5c25 0 49 12 49 37c0 19 -22 27 -45 27c-8 0 -18 -2 -18 -2l29 92c-144 32 -227 149 -227 298c0 233 197 419 432 419c93 0 157 -31 197 -64l-61 -124c-30 24 -87 56 -158 56c-143 0 -261 -119 -261 -269
c0 -112 71 -193 183 -193c76 0 147 34 184 57l19 -123c-47 -31 -123 -66 -225 -66h-14l-8 -26c41 -9 62 -41 62 -78c0 -73 -66 -116 -142 -116z" />
    <glyph glyph-name="ccedilla" unicode="&#xe7;" horiz-adv-x="490" 
d="M213 -233c-20 0 -47 6 -56 9l28 71c8 -2 19 -5 32 -5c25 0 49 12 49 37c0 19 -22 27 -45 27c-8 0 -18 -2 -18 -2l29 92c-104 25 -168 110 -168 222c0 180 152 318 329 318c77 0 126 -30 155 -56l-57 -116c-20 21 -56 50 -115 50c-100 0 -172 -83 -172 -177
c0 -75 49 -128 126 -128c53 0 100 28 126 47l21 -113c-34 -24 -94 -56 -175 -56h-1l-8 -26c41 -9 62 -41 62 -78c0 -73 -66 -116 -142 -116z" />
    <glyph glyph-name="oe" unicode="&#x153;" horiz-adv-x="979" 
d="M64 219c0 179 155 317 332 317c82 0 148 -33 189 -88c52 55 124 88 205 88c139 0 215 -86 215 -223c0 -37 -9 -76 -12 -86h-368c-9 -70 37 -120 114 -120c71 0 119 42 138 64l83 -69c-26 -37 -111 -115 -241 -115c-87 0 -149 33 -186 88c-58 -55 -139 -88 -229 -88
c-145 0 -240 97 -240 232zM204 235c0 -74 48 -126 120 -126c94 0 172 75 172 176c0 75 -48 129 -121 129c-93 0 -171 -77 -171 -179zM644 317h225c8 64 -31 106 -94 106c-65 0 -115 -46 -131 -106z" />
    <glyph glyph-name="aogonek" unicode="&#x105;" horiz-adv-x="526" 
d="M289 -124c0 66 61 109 97 124h-30l-3 34c-32 -29 -75 -47 -135 -47c-96 0 -170 56 -170 150c0 116 100 198 235 198c53 0 91 -16 108 -29l6 34c8 46 -21 77 -82 77c-52 0 -103 -17 -145 -37l-37 94c53 32 137 62 217 62c168 0 203 -88 183 -205l-55 -331
c-14 -5 -66 -28 -66 -69c0 -23 23 -35 45 -35l-16 -98c-7 -2 -23 -4 -36 -4c-56 0 -116 17 -116 82zM189 157c0 -38 32 -63 80 -63c57 0 103 32 103 82c0 40 -32 63 -80 63c-58 0 -103 -35 -103 -82z" />
    <glyph glyph-name="Uogonek" unicode="&#x172;" horiz-adv-x="692" 
d="M256 -124c0 53 38 90 72 111c-171 6 -247 115 -220 276l73 437h141l-73 -437c-15 -89 26 -145 116 -145s151 56 166 145l73 437h141l-73 -437c-23 -132 -104 -230 -227 -263c-14 -5 -66 -28 -66 -69c0 -23 23 -35 45 -35l-16 -98c-7 -2 -23 -4 -36 -4
c-56 0 -116 17 -116 82z" />
    <glyph glyph-name="uogonek" unicode="&#x173;" horiz-adv-x="556" 
d="M317 -124c0 66 61 109 97 124h-43l10 61c-28 -36 -85 -74 -153 -74c-149 0 -160 123 -141 234l51 302h137l-53 -318c-10 -58 24 -94 71 -94c57 0 101 42 110 98l53 314h137l-87 -523c-14 -5 -66 -28 -66 -69c0 -23 23 -35 45 -35l-16 -98c-7 -2 -23 -4 -36 -4
c-56 0 -116 17 -116 82z" />
    <glyph glyph-name="Scedilla" unicode="&#x15e;" horiz-adv-x="521" 
d="M201 -233c-20 0 -47 6 -56 9l28 71c8 -2 19 -5 32 -5c25 0 49 12 49 37c0 19 -22 27 -45 27c-8 0 -18 -2 -18 -2l27 87c-116 18 -162 107 -171 158l125 58c11 -46 47 -89 110 -89c59 0 96 33 96 81c0 104 -252 106 -252 292c0 124 98 222 248 222
c141 0 190 -102 199 -153l-121 -53c-10 33 -33 76 -94 76c-54 0 -88 -34 -88 -75c0 -101 255 -112 255 -294c0 -126 -87 -217 -236 -226l-8 -27c41 -9 62 -41 62 -78c0 -73 -66 -116 -142 -116z" />
    <glyph glyph-name="scedilla" unicode="&#x15f;" horiz-adv-x="435" 
d="M158 -233c-20 0 -47 6 -56 9l28 71c8 -2 19 -5 32 -5c25 0 49 12 49 37c0 19 -22 27 -45 27c-8 0 -18 -2 -18 -2l27 86c-80 10 -125 54 -142 94l93 72c21 -30 52 -57 111 -57c43 0 72 20 72 52c0 69 -211 51 -211 205c0 113 101 180 219 180c99 0 145 -52 163 -93
l-102 -68c-13 20 -37 50 -86 50c-35 0 -62 -19 -62 -47c0 -72 213 -46 213 -200c0 -106 -88 -177 -197 -189l-8 -28c41 -9 62 -41 62 -78c0 -73 -66 -116 -142 -116z" />
    <glyph glyph-name="eogonek" unicode="&#x119;" horiz-adv-x="559" 
d="M199 -124c0 53 39 92 73 112c-131 11 -207 104 -207 228c0 178 137 320 305 320c139 0 215 -86 215 -223c0 -37 -9 -76 -12 -86h-368c-9 -70 37 -120 114 -120c71 0 119 42 138 64l83 -69c-20 -28 -73 -80 -155 -103c-16 -6 -63 -29 -63 -68c0 -23 23 -35 45 -35l-16 -98
c-7 -2 -23 -4 -36 -4c-56 0 -116 17 -116 82zM224 317h225c8 64 -31 106 -94 106c-65 0 -115 -46 -131 -106z" />
    <glyph glyph-name="uni021A" unicode="&#x21a;" horiz-adv-x="511" 
d="M185 0l96 573h-164l21 127h468l-21 -127h-163l-96 -573h-141zM132 -240c20 14 49 39 64 65c-33 7 -48 35 -48 62c0 46 43 84 88 84c40 0 66 -28 66 -71c0 -72 -56 -147 -127 -191z" />
    <glyph glyph-name="uni021B" unicode="&#x21b;" horiz-adv-x="333" 
d="M155 523l18 110h136l-18 -110h98l-19 -112h-98l-34 -202c-13 -78 9 -94 62 -94c9 0 14 0 25 1l-20 -118s-22 -5 -60 -5c-125 0 -168 70 -144 212l34 206h-55l19 112h56zM81 -240c20 14 49 39 64 65c-33 7 -48 35 -48 62c0 46 43 84 88 84c40 0 66 -28 66 -71
c0 -72 -56 -147 -127 -191z" />
    </font>
</defs>
</svg>
