<?xml version="1.0" standalone="no"?>
<!DOCTYPE svg PUBLIC "-//W3C//DTD SVG 1.1//EN" "http://www.w3.org/Graphics/SVG/1.1/DTD/svg11.dtd" >
<svg xmlns="http://www.w3.org/2000/svg" xmlns:xlink="http://www.w3.org/1999/xlink" version="1.1">
<metadata>
Created by FontForge 20190801 at Fri Oct 14 19:17:37 2016
 By root
Copyright (c) 2014 by atipo. All rights reserved.
</metadata>
<defs>
<font id="Geomanist-Medium" horiz-adv-x="247" >
  <font-face 
    font-family="Geomanist"
    font-weight="500"
    font-stretch="normal"
    units-per-em="1000"
    panose-1="2 0 6 3 0 0 0 2 0 4"
    ascent="750"
    descent="-250"
    x-height="523"
    cap-height="700"
    bbox="-51 -291 1163 1013"
    underline-thickness="50"
    underline-position="-100"
    unicode-range="U+0020-F6C3"
  />
<missing-glyph horiz-adv-x="508" 
d="M4 0v700h500v-700h-500zM254 395l170 255h-340zM284 350l170 -255v510zM54 95l170 255l-170 255v-510zM84 50h340l-170 255z" />
    <glyph glyph-name="ellipsis" unicode="&#x2e;&#x2e;&#x2e;" horiz-adv-x="769" 
d="M122 -13c-48 0 -85 38 -85 84c0 47 37 86 85 86s85 -39 85 -86c0 -46 -37 -84 -85 -84zM384 -13c-48 0 -85 38 -85 84c0 47 37 86 85 86s85 -39 85 -86c0 -46 -37 -84 -85 -84zM647 -13c-48 0 -85 38 -85 84c0 47 37 86 85 86s85 -39 85 -86c0 -46 -37 -84 -85 -84z" />
    <glyph glyph-name=".notdef" horiz-adv-x="508" 
d="M4 0v700h500v-700h-500zM254 395l170 255h-340zM284 350l170 -255v510zM54 95l170 255l-170 255v-510zM84 50h340l-170 255z" />
    <glyph glyph-name="space" unicode=" " horiz-adv-x="248" 
 />
    <glyph glyph-name="numbersign" unicode="#" horiz-adv-x="659" 
d="M86 0l37 178h-97l21 104h98l27 134h-97l21 105h98l38 179h115l-37 -179h111l37 179h116l-37 -179h96l-21 -105h-97l-27 -134h96l-21 -104h-97l-37 -178h-116l37 178h-111l-37 -178h-116zM261 282h111l27 134h-111z" />
    <glyph glyph-name="percent" unicode="%" horiz-adv-x="804" 
d="M70 0l530 700h134l-530 -700h-134zM368 546c0 -92 -72 -167 -170 -167s-170 75 -170 167s72 167 170 167s170 -75 170 -167zM133 546c0 -36 25 -67 65 -67s65 31 65 67s-25 67 -65 67s-65 -31 -65 -67zM775 152c0 -92 -72 -167 -170 -167s-170 75 -170 167
s72 167 170 167s170 -75 170 -167zM540 152c0 -36 25 -67 65 -67s65 31 65 67s-25 67 -65 67s-65 -31 -65 -67z" />
    <glyph glyph-name="quotesingle" unicode="'" horiz-adv-x="199" 
d="M48 462l-5 238h112l-5 -238h-102z" />
    <glyph glyph-name="parenleft" unicode="(" horiz-adv-x="332" 
d="M182 596v-558c0 -51 23 -85 86 -85v-119c-152 0 -223 74 -223 211v543c0 137 71 212 223 212v-119c-63 0 -86 -34 -86 -85z" />
    <glyph glyph-name="parenright" unicode=")" horiz-adv-x="333" 
d="M150 38v558c0 51 -23 85 -86 85v119c152 0 223 -75 223 -212v-543c0 -137 -71 -211 -223 -211v119c63 0 86 34 86 85z" />
    <glyph glyph-name="asterisk" unicode="*" horiz-adv-x="434" 
d="M36 569l47 79l86 -49v101h94v-101l87 49l46 -79l-87 -49l88 -48l-47 -80l-87 50v-101h-94v101l-86 -50l-47 79l87 49z" />
    <glyph glyph-name="plus" unicode="+" horiz-adv-x="550" 
d="M36 256v111h181v192h116v-192h181v-111h-181v-193h-116v193h-181z" />
    <glyph glyph-name="comma" unicode="," horiz-adv-x="244" 
d="M44 -93c21 14 57 49 62 81c-45 10 -69 47 -69 83c0 47 37 86 84 86c48 0 88 -33 88 -92c0 -91 -50 -173 -111 -218z" />
    <glyph glyph-name="hyphen" unicode="-" horiz-adv-x="369" 
d="M45 242v124h278v-124h-278z" />
    <glyph glyph-name="period" unicode="." horiz-adv-x="245" 
d="M122 -13c-48 0 -85 38 -85 84c0 47 37 86 85 86s85 -39 85 -86c0 -46 -37 -84 -85 -84z" />
    <glyph glyph-name="slash" unicode="/" horiz-adv-x="452" 
d="M15 -108l301 858h121l-301 -858h-121z" />
    <glyph glyph-name="zero" unicode="0" horiz-adv-x="576" 
d="M529 350c0 -239 -66 -363 -242 -363c-175 0 -241 124 -241 363c0 238 66 363 241 363c176 0 242 -125 242 -363zM189 350c0 -149 13 -231 98 -231c86 0 99 82 99 231c0 148 -13 231 -99 231c-85 0 -98 -83 -98 -231z" />
    <glyph glyph-name="one" unicode="1" horiz-adv-x="341" 
d="M57 536l-35 117l132 47h115v-700h-139v561z" />
    <glyph glyph-name="two" unicode="2" horiz-adv-x="541" 
d="M42 0v50c0 200 309 318 309 447c0 52 -34 86 -90 86c-57 0 -86 -38 -99 -82l-123 36c16 70 76 176 228 176c135 0 228 -82 228 -210c0 -188 -261 -278 -286 -380h294v-123h-461z" />
    <glyph glyph-name="three" unicode="3" horiz-adv-x="541" 
d="M267 -13c-152 0 -214 98 -232 172l121 38c14 -44 48 -81 108 -81c58 0 98 38 98 96c0 55 -39 95 -115 95h-77v109l145 160h-253v124h414v-124l-147 -154c88 -9 176 -80 176 -204c0 -136 -101 -231 -238 -231z" />
    <glyph glyph-name="four" unicode="4" horiz-adv-x="588" 
d="M27 163v101l287 436h164v-417h82v-120h-82v-163h-139v163h-312zM172 283h167v260z" />
    <glyph glyph-name="five" unicode="5" horiz-adv-x="541" 
d="M258 338c-42 0 -68 -22 -83 -38l-117 20l15 380h395v-124h-270l-6 -143c31 17 64 24 100 24c118 0 219 -89 219 -219c0 -146 -99 -251 -238 -251c-150 0 -219 98 -238 172l122 38c13 -48 50 -81 109 -81c61 0 103 47 103 111c0 55 -35 111 -111 111z" />
    <glyph glyph-name="six" unicode="6" horiz-adv-x="562" 
d="M287 119c61 0 95 41 95 111c0 63 -33 110 -98 110c-41 0 -76 -22 -101 -55c0 -87 9 -166 104 -166zM326 713c81 0 135 -28 164 -46l-55 -114c-20 13 -52 28 -100 28c-117 0 -142 -98 -145 -160c21 18 63 45 125 45c121 0 206 -84 206 -232c0 -147 -93 -247 -235 -247
c-192 0 -246 134 -246 318c0 217 65 408 286 408z" />
    <glyph glyph-name="seven" unicode="7" horiz-adv-x="510" 
d="M25 700h462v-107l-229 -593h-152l232 576h-313v124z" />
    <glyph glyph-name="eight" unicode="8" horiz-adv-x="564" 
d="M281 -13c-149 0 -245 85 -245 219c0 86 52 142 96 166c-34 22 -77 71 -77 142c0 115 89 199 227 199c137 0 227 -83 227 -199c0 -71 -43 -120 -78 -142c46 -25 97 -80 97 -166c0 -133 -99 -219 -247 -219zM282 302c-62 0 -102 -39 -102 -94c0 -52 36 -93 102 -93
c67 0 102 41 102 93c0 55 -40 94 -102 94zM282 586c-57 0 -87 -36 -87 -80c0 -48 35 -81 87 -81c51 0 87 33 87 81c0 44 -31 80 -87 80z" />
    <glyph glyph-name="nine" unicode="9" horiz-adv-x="562" 
d="M274 581c-61 0 -95 -41 -95 -111c0 -63 33 -110 98 -110c41 0 76 22 101 55c0 87 -9 166 -104 166zM235 -13c-81 0 -135 28 -164 46l55 114c20 -13 52 -28 100 -28c117 0 142 98 145 160c-21 -18 -63 -45 -125 -45c-121 0 -206 84 -206 232c0 147 93 247 235 247
c192 0 246 -134 246 -318c0 -217 -65 -408 -286 -408z" />
    <glyph glyph-name="colon" unicode=":" horiz-adv-x="244" 
d="M122 -13c-48 0 -85 38 -85 84c0 47 37 86 85 86s85 -39 85 -86c0 -46 -37 -84 -85 -84zM122 342c-48 0 -85 38 -85 84c0 47 37 86 85 86s85 -39 85 -86c0 -46 -37 -84 -85 -84z" />
    <glyph glyph-name="semicolon" unicode=";" horiz-adv-x="244" 
d="M122 342c-48 0 -85 38 -85 84c0 47 37 86 85 86s85 -39 85 -86c0 -46 -37 -84 -85 -84zM44 -93c21 14 57 49 62 81c-45 10 -69 47 -69 83c0 47 37 86 84 86c48 0 88 -33 88 -92c0 -91 -50 -173 -111 -218z" />
    <glyph glyph-name="less" unicode="&#x3c;" horiz-adv-x="508" 
d="M45 262v100l418 189v-120l-280 -118l280 -119v-121z" />
    <glyph glyph-name="equal" unicode="=" horiz-adv-x="550" 
d="M36 347v110h478v-110h-478zM36 157v111h478v-111h-478z" />
    <glyph glyph-name="greater" unicode="&#x3e;" horiz-adv-x="508" 
d="M463 362v-100l-418 -189v121l280 119l-280 118v120z" />
    <glyph glyph-name="question" unicode="?" horiz-adv-x="482" 
d="M152 199v49c0 135 160 166 160 263c0 39 -31 75 -84 75c-55 0 -78 -36 -89 -62l-110 49c19 55 76 140 201 140c129 0 223 -80 223 -194c0 -150 -167 -182 -167 -279v-41h-134zM219 -13c-48 0 -85 38 -85 84c0 47 37 86 85 86s85 -39 85 -86c0 -46 -37 -84 -85 -84z" />
    <glyph glyph-name="at" unicode="@" horiz-adv-x="905" 
d="M568 130c-12 -19 -53 -68 -131 -68c-112 0 -188 81 -188 197c0 114 78 197 184 197c61 0 95 -30 105 -40v34h103v-237c0 -39 15 -61 51 -61c44 0 75 52 75 150c0 181 -128 284 -309 284c-192 0 -317 -141 -317 -322c0 -190 128 -318 325 -318c70 0 138 20 189 50l46 -74
c-55 -38 -136 -67 -235 -67c-252 0 -430 167 -430 406c0 244 184 415 424 415c241 0 408 -158 408 -369c0 -154 -73 -245 -185 -245c-57 0 -97 28 -115 68zM360 259c0 -59 38 -101 90 -101c50 0 91 37 91 102c0 55 -36 99 -91 99c-51 0 -90 -40 -90 -100z" />
    <glyph glyph-name="A" unicode="A" horiz-adv-x="660" 
d="M449 180h-238l-61 -180h-142l248 700h148l248 -700h-142zM412 297l-82 252l-81 -252h163z" />
    <glyph glyph-name="B" unicode="B" horiz-adv-x="572" 
d="M67 0v700h222c139 0 230 -72 230 -185c0 -64 -33 -123 -84 -151c66 -28 107 -87 107 -159c0 -136 -111 -205 -240 -205h-235zM208 417h80c49 0 87 33 87 82c0 48 -36 79 -89 79h-78v-161zM208 121h86c57 0 102 35 102 92c0 58 -45 90 -102 90h-86v-182z" />
    <glyph glyph-name="C" unicode="C" horiz-adv-x="638" 
d="M395 -13c-219 0 -365 157 -365 363s154 363 365 363c93 0 163 -31 208 -64l-40 -124c-34 24 -97 56 -168 56c-127 0 -218 -99 -218 -231c0 -134 91 -231 218 -231c76 0 141 34 174 57l40 -123c-42 -31 -112 -66 -214 -66z" />
    <glyph glyph-name="D" unicode="D" horiz-adv-x="655" 
d="M67 0v700h186c229 0 371 -131 371 -350c0 -224 -143 -350 -371 -350h-186zM208 122h50c133 0 219 77 219 228c0 147 -86 227 -219 227h-50v-455z" />
    <glyph glyph-name="E" unicode="E" horiz-adv-x="481" 
d="M67 0v700h360v-127h-219v-156h188v-125h-188v-166h228v-126h-369z" />
    <glyph glyph-name="F" unicode="F" horiz-adv-x="470" 
d="M67 0v700h358v-127h-217v-165h190v-126h-190v-282h-141z" />
    <glyph glyph-name="G" unicode="G" horiz-adv-x="747" 
d="M393 713c147 0 240 -73 276 -116l-89 -92c-21 23 -81 77 -181 77c-137 0 -222 -102 -222 -232c0 -143 96 -231 222 -231c98 0 153 40 168 55v86h-133v119h265v-277c-75 -64 -159 -115 -306 -115c-198 0 -363 142 -363 363c0 201 150 363 363 363z" />
    <glyph glyph-name="H" unicode="H" horiz-adv-x="707" 
d="M67 0v700h141v-284h291v284h141v-700h-141v289h-291v-289h-141z" />
    <glyph glyph-name="I" unicode="I" horiz-adv-x="275" 
d="M67 0v700h141v-700h-141z" />
    <glyph glyph-name="J" unicode="J" horiz-adv-x="374" 
d="M20 4l16 125c8 -1 32 -6 58 -6c48 0 71 29 71 76v501h141v-526c0 -130 -86 -180 -194 -180c-38 0 -64 4 -92 10z" />
    <glyph glyph-name="K" unicode="K" horiz-adv-x="615" 
d="M67 0v700h141v-320l231 320h158l-252 -335l260 -365h-162l-235 340v-340h-141z" />
    <glyph glyph-name="L" unicode="L" horiz-adv-x="455" 
d="M67 0v700h141v-573h228v-127h-369z" />
    <glyph glyph-name="M" unicode="M" horiz-adv-x="897" 
d="M248 700l200 -477l201 477h182v-700h-135v500l-182 -441h-131l-182 441v-500h-135v700h182z" />
    <glyph glyph-name="N" unicode="N" horiz-adv-x="713" 
d="M507 0l-302 474v-474h-139v700h143l299 -478v478h139v-700h-140z" />
    <glyph glyph-name="O" unicode="O" horiz-adv-x="788" 
d="M394 -13c-215 0 -364 157 -364 363c0 204 149 363 364 363s364 -159 364 -363c0 -206 -149 -363 -364 -363zM394 581c-126 0 -217 -99 -217 -231c0 -134 91 -231 217 -231s217 97 217 231c0 132 -91 231 -217 231z" />
    <glyph glyph-name="P" unicode="P" horiz-adv-x="542" 
d="M67 0v700h223c137 0 230 -86 230 -218c0 -130 -97 -221 -229 -221h-83v-261h-141zM208 383h63c62 0 104 40 104 99c0 58 -43 96 -102 96h-65v-195z" />
    <glyph glyph-name="Q" unicode="Q" horiz-adv-x="789" 
d="M394 -13c-215 0 -364 157 -364 363c0 204 149 363 364 363s364 -159 364 -363c0 -80 -24 -151 -64 -210l68 -61l-86 -95l-72 66c-58 -39 -129 -63 -210 -63zM394 581c-126 0 -217 -99 -217 -231c0 -134 91 -231 217 -231c39 0 74 9 105 26l-65 59l84 95l68 -62
c16 33 25 71 25 113c0 132 -91 231 -217 231z" />
    <glyph glyph-name="R" unicode="R" horiz-adv-x="585" 
d="M67 0v700h211c153 0 237 -93 237 -208c0 -85 -42 -150 -106 -185l166 -307h-156l-136 274h-75v-274h-141zM208 393h66c51 0 96 32 96 94c0 56 -39 91 -103 91h-59v-185z" />
    <glyph glyph-name="S" unicode="S" horiz-adv-x="521" 
d="M263 713c141 0 199 -102 216 -153l-117 -53c-15 33 -41 76 -102 76c-48 0 -76 -29 -76 -67c0 -116 304 -99 304 -316c0 -123 -88 -213 -234 -213c-150 0 -212 105 -232 162l119 58c19 -46 58 -89 121 -89c52 0 83 27 83 72c0 120 -302 100 -302 324c0 118 86 199 220 199
z" />
    <glyph glyph-name="T" unicode="T" horiz-adv-x="511" 
d="M185 0v573h-164v127h468v-127h-163v-573h-141z" />
    <glyph glyph-name="U" unicode="U" horiz-adv-x="692" 
d="M346 -13c-181 0 -282 111 -282 276v437h141v-437c0 -89 51 -145 141 -145s141 56 141 145v437h141v-437c0 -165 -101 -276 -282 -276z" />
    <glyph glyph-name="V" unicode="V" horiz-adv-x="680" 
d="M417 0h-153l-258 700h155l179 -534l179 534h155z" />
    <glyph glyph-name="W" unicode="W" horiz-adv-x="977" 
d="M620 0l-132 483l-132 -483h-159l-188 700h154l121 -524l139 524h130l139 -524l122 524h153l-187 -700h-160z" />
    <glyph glyph-name="X" unicode="X" horiz-adv-x="638" 
d="M7 0l227 356l-220 344h167l136 -235l137 235h166l-220 -344l228 -356h-157c-52 83 -103 167 -154 250l-153 -250h-157z" />
    <glyph glyph-name="Y" unicode="Y" horiz-adv-x="584" 
d="M222 0v320l-215 380h159l126 -251l126 251h159l-215 -380v-320h-140z" />
    <glyph glyph-name="Z" unicode="Z" horiz-adv-x="603" 
d="M32 0v92l344 483h-334v125h522v-92l-346 -483h349v-125h-535z" />
    <glyph glyph-name="bracketleft" unicode="[" horiz-adv-x="332" 
d="M45 -166v966h223v-119h-86v-728h86v-119h-223z" />
    <glyph glyph-name="backslash" unicode="\" horiz-adv-x="452" 
d="M136 750l301 -858h-121l-301 858h121z" />
    <glyph glyph-name="bracketright" unicode="]" horiz-adv-x="334" 
d="M287 800v-966h-223v119h86v728h-86v119h223z" />
    <glyph glyph-name="asciicircum" unicode="^" horiz-adv-x="557" 
d="M39 318l183 382h113l183 -382h-129l-111 248l-111 -248h-128z" />
    <glyph glyph-name="underscore" unicode="_" horiz-adv-x="614" 
d="M24 -29h565v-108h-565v108z" />
    <glyph glyph-name="grave" unicode="`" horiz-adv-x="483" 
d="M280 725l67 -144h-115l-97 144h145z" />
    <glyph glyph-name="a" unicode="a" horiz-adv-x="526" 
d="M24 162c0 103 81 173 203 173c53 0 94 -16 113 -29v34c0 46 -34 77 -95 77c-52 0 -100 -17 -139 -37l-52 94c47 32 126 62 206 62c168 0 218 -88 218 -205v-331h-122l-9 34c-27 -29 -67 -47 -127 -47c-106 0 -196 65 -196 175zM162 166c0 -43 39 -72 91 -72s90 28 90 72
c0 46 -38 73 -91 73s-90 -30 -90 -73z" />
    <glyph glyph-name="b" unicode="b" horiz-adv-x="620" 
d="M54 0v723h138v-255c13 18 65 68 155 68c150 0 248 -113 248 -275c0 -161 -106 -274 -256 -274c-89 0 -141 50 -155 67v-54h-130zM188 260c0 -83 50 -151 134 -151c78 0 134 58 134 151c0 91 -54 154 -134 154c-76 0 -134 -56 -134 -154z" />
    <glyph glyph-name="c" unicode="c" horiz-adv-x="490" 
d="M312 109c53 0 95 28 118 47l37 -113c-30 -24 -87 -56 -163 -56c-163 0 -279 114 -279 273s119 276 278 276c77 0 131 -30 165 -56l-39 -116c-23 21 -63 50 -122 50c-89 0 -144 -69 -144 -153c0 -89 62 -152 149 -152z" />
    <glyph glyph-name="d" unicode="d" horiz-adv-x="620" 
d="M566 723v-723h-130v54c-14 -17 -66 -67 -155 -67c-150 0 -256 113 -256 274c0 162 98 275 248 275c90 0 142 -50 155 -68v255h138zM432 260c0 98 -58 154 -134 154c-80 0 -134 -63 -134 -154c0 -93 56 -151 134 -151c84 0 134 68 134 151z" />
    <glyph glyph-name="e" unicode="e" horiz-adv-x="559" 
d="M26 260c0 158 107 276 256 276c162 0 254 -108 254 -279c0 -10 0 -20 -1 -30h-368c3 -70 59 -120 136 -120c71 0 112 42 127 64l91 -69c-20 -37 -90 -115 -220 -115c-168 0 -275 116 -275 273zM171 317h225c-3 64 -49 106 -112 106c-65 0 -107 -46 -113 -106z" />
    <glyph glyph-name="f" unicode="f" horiz-adv-x="326" 
d="M78 0v411h-56v112h56v19c0 136 91 181 193 181c20 0 35 -1 45 -2v-116c-3 0 -15 2 -27 2c-48 0 -73 -22 -73 -68v-16h91v-112h-91v-411h-138z" />
    <glyph glyph-name="g" unicode="g" horiz-adv-x="615" 
d="M92 -144l42 106c17 -9 77 -36 149 -36c75 0 144 23 144 104v24c-11 -15 -62 -67 -153 -67c-151 0 -250 113 -250 274s106 275 255 275c88 0 141 -48 156 -68v55h130v-457c0 -195 -127 -258 -281 -258c-72 0 -145 22 -192 48zM431 262c0 89 -54 152 -135 152
c-78 0 -133 -60 -133 -152s56 -153 134 -153c80 0 134 60 134 153z" />
    <glyph glyph-name="h" unicode="h" horiz-adv-x="562" 
d="M330 536c150 0 181 -123 181 -234v-302h-137v318c0 58 -40 94 -87 94c-58 0 -95 -42 -95 -98v-314h-138v723h138v-261c22 36 70 74 138 74z" />
    <glyph glyph-name="i" unicode="i" 
d="M54 0v523h138v-523h-138zM42 649c0 45 35 79 80 79c46 0 81 -34 81 -79s-35 -79 -81 -79c-45 0 -80 34 -80 79z" />
    <glyph glyph-name="j" unicode="j" 
d="M54 -1v524h138v-530c0 -138 -87 -184 -200 -184c-16 0 -34 2 -34 2v117s14 -2 24 -2c50 0 72 26 72 73zM42 649c0 45 35 79 80 79c46 0 81 -34 81 -79s-35 -79 -81 -79c-45 0 -80 34 -80 79z" />
    <glyph glyph-name="k" unicode="k" horiz-adv-x="532" 
d="M54 0v723h138v-420l168 220h155l-184 -237l198 -286h-162l-175 270v-270h-138z" />
    <glyph glyph-name="l" unicode="l" 
d="M54 0v723h138v-723h-138z" />
    <glyph glyph-name="m" unicode="m" horiz-adv-x="851" 
d="M801 345v-345h-138v313c0 62 -31 99 -82 99c-50 0 -85 -37 -85 -100v-312h-138v318c0 59 -30 94 -81 94c-49 0 -85 -37 -85 -99v-313h-138v523h135v-61c19 36 65 74 136 74c67 0 116 -30 143 -78c31 48 85 78 155 78c119 0 178 -79 178 -191z" />
    <glyph glyph-name="n" unicode="n" horiz-adv-x="560" 
d="M329 536c149 0 181 -123 181 -234v-302h-138v318c0 58 -40 94 -87 94c-57 0 -93 -42 -93 -98v-314h-138v523h135v-61c22 36 72 74 140 74z" />
    <glyph glyph-name="o" unicode="o" horiz-adv-x="613" 
d="M25 260c0 159 122 276 281 276c160 0 282 -118 282 -276s-118 -273 -282 -273c-163 0 -281 115 -281 273zM163 260c0 -89 61 -151 143 -151c83 0 144 62 144 151s-61 154 -144 154s-143 -64 -143 -154z" />
    <glyph glyph-name="p" unicode="p" horiz-adv-x="621" 
d="M54 -187v710h130v-55c14 18 66 68 155 68c150 0 256 -114 256 -274c0 -162 -98 -275 -248 -275c-90 0 -142 50 -155 67v-241h-138zM188 263c0 -98 58 -154 134 -154c80 0 134 63 134 154c0 93 -56 151 -134 151c-84 0 -134 -68 -134 -151z" />
    <glyph glyph-name="q" unicode="q" horiz-adv-x="621" 
d="M566 523v-710h-138v241c-13 -17 -65 -67 -155 -67c-150 0 -248 113 -248 275c0 160 106 274 256 274c89 0 141 -50 155 -68v55h130zM432 263c0 83 -50 151 -134 151c-78 0 -134 -58 -134 -151c0 -91 54 -154 134 -154c76 0 134 56 134 154z" />
    <glyph glyph-name="r" unicode="r" horiz-adv-x="360" 
d="M333 536v-140c-103 0 -141 -64 -141 -168v-228h-138v523h135v-76c23 52 75 89 144 89z" />
    <glyph glyph-name="s" unicode="s" horiz-adv-x="435" 
d="M214 -13c-103 0 -167 52 -195 97l81 72c26 -30 61 -57 120 -57c39 0 64 17 64 47c0 80 -247 49 -247 235c0 97 83 155 190 155c99 0 154 -52 179 -93l-91 -68c-16 20 -45 50 -94 50c-32 0 -54 -16 -54 -42c0 -83 248 -43 248 -230c0 -102 -88 -166 -201 -166z" />
    <glyph glyph-name="t" unicode="t" horiz-adv-x="333" 
d="M67 523v110h136v-110h98v-112h-98v-202c0 -78 24 -94 77 -94c9 0 14 0 25 1v-118s-21 -5 -59 -5c-125 0 -180 70 -180 212v206h-55v112h56z" />
    <glyph glyph-name="u" unicode="u" horiz-adv-x="556" 
d="M231 -13c-149 0 -181 123 -181 234v302h138v-318c0 -58 40 -94 87 -94c57 0 93 42 93 98v314h138v-523h-135v61c-22 -36 -72 -74 -140 -74z" />
    <glyph glyph-name="v" unicode="v" horiz-adv-x="542" 
d="M351 0h-160l-187 523h147l120 -376l120 376h147z" />
    <glyph glyph-name="w" unicode="w" horiz-adv-x="828" 
d="M510 0l-96 335l-97 -335h-154l-156 523h150l92 -371l100 371h130l99 -371l93 371h150l-157 -523h-154z" />
    <glyph glyph-name="x" unicode="x" horiz-adv-x="532" 
d="M377 0l-111 164l-112 -164h-149l184 267l-176 256h155l98 -159l98 159h155l-176 -256l184 -267h-150z" />
    <glyph glyph-name="y" unicode="y" horiz-adv-x="540" 
d="M266 -179h-132l73 192l-201 510h148l117 -341l118 341h144z" />
    <glyph glyph-name="z" unicode="z" horiz-adv-x="468" 
d="M435 437l-236 -322h239v-115h-410v85l236 323h-229v115h400v-86z" />
    <glyph glyph-name="braceleft" unicode="{" horiz-adv-x="388" 
d="M158 317c19 -4 79 -38 79 -130v-149c0 -51 23 -85 87 -85v-119c-153 0 -223 75 -223 212v108c0 80 -37 99 -73 99v129c38 0 73 19 73 99v107c0 137 70 212 223 212v-119c-64 0 -87 -34 -87 -85v-148c0 -93 -60 -126 -79 -131z" />
    <glyph glyph-name="bar" unicode="|" horiz-adv-x="282" 
d="M76 -235v1059h130v-1059h-130z" />
    <glyph glyph-name="braceright" unicode="}" horiz-adv-x="388" 
d="M230 317c-19 5 -79 38 -79 131v148c0 51 -23 85 -87 85v119c153 0 223 -75 223 -212v-107c0 -80 35 -99 73 -99v-129c-36 0 -73 -19 -73 -99v-108c0 -137 -70 -212 -223 -212v119c64 0 87 34 87 85v149c0 92 60 126 79 130z" />
    <glyph glyph-name="asciitilde" unicode="~" horiz-adv-x="546" 
d="M364 217c-75 0 -117 51 -174 51c-32 0 -48 -23 -48 -52h-107c0 104 56 177 147 177c71 0 122 -51 172 -51c32 0 48 22 49 51h107c0 -97 -54 -176 -146 -176z" />
    <glyph glyph-name="exclamdown" unicode="&#xa1;" horiz-adv-x="292" 
d="M73 -153l11 501h124l11 -501h-146zM146 560c48 0 85 -38 85 -84c0 -47 -37 -86 -85 -86s-85 39 -85 86c0 46 37 84 85 84z" />
    <glyph glyph-name="sterling" unicode="&#xa3;" horiz-adv-x="573" 
d="M42 292v106h51v102c0 124 88 213 223 213c129 0 187 -90 203 -146l-115 -49c-10 26 -33 60 -87 60c-49 0 -84 -35 -84 -85v-95h155v-106h-155v-169h302v-123h-500v123h58v169h-51z" />
    <glyph glyph-name="dieresis" unicode="&#xa8;" horiz-adv-x="483" 
d="M145 585c-40 0 -68 30 -68 68c0 37 28 68 68 68c39 0 68 -31 68 -68c0 -38 -29 -68 -68 -68zM337 585c-41 0 -68 30 -68 68c0 37 27 68 68 68c39 0 68 -31 68 -68c0 -38 -29 -68 -68 -68z" />
    <glyph glyph-name="copyright" unicode="&#xa9;" horiz-adv-x="790" 
d="M395 69c159 0 267 119 267 281c0 160 -108 279 -268 279c-158 0 -267 -119 -267 -279c0 -162 109 -281 268 -281zM215 349c0 108 74 192 183 192c83 0 128 -48 148 -76l-73 -59c-11 15 -33 40 -74 40c-51 0 -80 -41 -80 -97s29 -97 80 -97c41 0 63 25 74 40l73 -58
c-20 -29 -65 -77 -148 -77c-109 0 -183 84 -183 192zM394 713c209 0 360 -160 360 -365c0 -203 -151 -362 -359 -362s-360 159 -360 362c0 204 152 365 359 365z" />
    <glyph glyph-name="ordfeminine" unicode="&#xaa;" horiz-adv-x="411" 
d="M34 432c0 78 60 130 152 130c38 0 70 -12 84 -20v23c0 34 -25 56 -70 56c-39 0 -75 -12 -105 -28l-40 72c37 25 90 48 157 48c125 0 163 -67 163 -156v-248h-93l-7 24c-20 -20 -50 -33 -94 -33c-80 0 -147 48 -147 132zM138 435c0 -32 29 -53 68 -53c38 0 67 20 67 53
s-29 53 -67 53c-40 0 -68 -22 -68 -53z" />
    <glyph glyph-name="guillemotleft" unicode="&#xab;" horiz-adv-x="490" 
d="M150 106l-122 187l122 188h123l-122 -188l122 -187h-123zM338 106l-122 187l122 188h123l-122 -188l122 -187h-123z" />
    <glyph glyph-name="registered" unicode="&#xae;" horiz-adv-x="452" 
d="M226 503h-21v-75h-59v216h88c49 0 78 -33 78 -70c0 -30 -17 -51 -34 -59l40 -87h-61zM229 594h-24v-43h24c12 0 22 9 22 22s-10 21 -22 21zM16 534c0 116 84 208 208 208c130 0 212 -91 212 -207c0 -113 -82 -207 -210 -207c-127 0 -210 90 -210 206zM72 534
c0 -88 58 -155 154 -155c97 0 154 66 154 156c0 92 -58 155 -156 155c-94 0 -152 -65 -152 -156z" />
    <glyph glyph-name="macron" unicode="&#xaf;" horiz-adv-x="445" 
d="M88 603v101h268v-101h-268z" />
    <glyph glyph-name="degree" unicode="&#xb0;" horiz-adv-x="378" 
d="M189 398c-95 0 -162 68 -162 156c0 89 68 159 162 159s161 -70 161 -158c0 -89 -66 -157 -161 -157zM189 619c-38 0 -63 -28 -63 -64c0 -37 25 -64 63 -64c41 0 63 27 63 64c0 36 -25 64 -63 64z" />
    <glyph glyph-name="twosuperior" unicode="&#xb2;" horiz-adv-x="360" 
d="M37 303v42c0 119 180 165 180 229c0 24 -16 41 -44 41c-34 0 -49 -24 -57 -45l-83 30c12 42 52 108 144 108c82 0 147 -47 147 -130c0 -103 -149 -137 -170 -189h175v-86h-292z" />
    <glyph glyph-name="threesuperior" unicode="&#xb3;" horiz-adv-x="357" 
d="M313 700v-68l-89 -89c56 -7 103 -47 103 -116c0 -87 -68 -132 -150 -132c-93 0 -133 65 -146 107c27 11 55 20 82 31c9 -22 26 -46 60 -46c28 0 48 17 48 46c0 30 -23 47 -57 47h-45v68l65 66h-135v86h264z" />
    <glyph glyph-name="acute" unicode="&#xb4;" horiz-adv-x="483" 
d="M135 581l67 144h145l-97 -144h-115z" />
    <glyph glyph-name="paragraph" unicode="&#xb6;" horiz-adv-x="545" 
d="M224 -45v368c-106 1 -188 82 -188 189s82 188 189 188h106v-745h-107zM391 -45v745h107v-745h-107z" />
    <glyph glyph-name="periodcentered" unicode="&#xb7;" horiz-adv-x="249" 
d="M124 229c-48 0 -85 38 -85 84c0 47 37 86 85 86s85 -39 85 -86c0 -46 -37 -84 -85 -84z" />
    <glyph glyph-name="cedilla" unicode="&#xb8;" horiz-adv-x="445" 
d="M190 -233c-20 0 -48 6 -58 9l16 71c8 -2 20 -5 33 -5c23 0 43 10 43 33c0 22 -25 31 -50 31c-8 0 -17 -2 -17 -2l16 108h72l-8 -51c49 -10 76 -48 76 -92c0 -65 -55 -102 -123 -102z" />
    <glyph glyph-name="onesuperior" unicode="&#xb9;" horiz-adv-x="286" 
d="M67 582l-26 88l86 30h86v-397h-104v295z" />
    <glyph glyph-name="ordmasculine" unicode="&#xba;" horiz-adv-x="480" 
d="M28 505c0 120 91 208 212 208c124 0 211 -88 211 -207c0 -118 -90 -206 -212 -206c-123 0 -211 87 -211 205zM134 505c0 -66 44 -112 105 -112c62 0 107 48 107 113c0 67 -46 113 -107 113c-62 0 -105 -47 -105 -114z" />
    <glyph glyph-name="guillemotright" unicode="&#xbb;" horiz-adv-x="490" 
d="M461 293l-122 -187h-123l122 187l-122 188h123zM273 293l-122 -187h-123l122 187l-122 188h123z" />
    <glyph glyph-name="onequarter" unicode="&#xbc;" horiz-adv-x="831" 
d="M654 0v73h-185v77l175 247h114v-236h44v-88h-44v-73h-104zM567 161h87v128zM279 -41h-118l374 782h119zM76 582l-26 88l86 30h86v-397h-104v295z" />
    <glyph glyph-name="onehalf" unicode="&#xbd;" horiz-adv-x="843" 
d="M76 582l-26 88l86 30h86v-397h-104v295zM264 -41h-118l374 782h119zM506 0v42c0 119 180 165 180 229c0 24 -16 41 -44 41c-34 0 -49 -24 -57 -45l-83 30c12 42 52 108 144 108c82 0 147 -47 147 -130c0 -103 -149 -137 -170 -189h175v-86h-292z" />
    <glyph glyph-name="threequarters" unicode="&#xbe;" horiz-adv-x="876" 
d="M325 -41h-118l374 782h119zM691 0v73h-185v77l175 247h114v-236h44v-88h-44v-73h-104zM604 161h87v128zM318 700v-68l-89 -89c56 -7 103 -47 103 -116c0 -87 -68 -132 -150 -132c-93 0 -133 65 -146 107c27 11 55 20 82 31c9 -22 26 -46 60 -46c28 0 48 17 48 46
c0 30 -23 47 -57 47h-45v68l65 66h-135v86h264z" />
    <glyph glyph-name="questiondown" unicode="&#xbf;" horiz-adv-x="482" 
d="M330 348v-49c0 -135 -160 -166 -160 -263c0 -39 31 -75 84 -75c55 0 78 36 89 62l110 -49c-19 -55 -76 -140 -201 -140c-129 0 -223 80 -223 194c0 150 167 182 167 279v41h134zM263 560c48 0 85 -38 85 -84c0 -47 -37 -86 -85 -86s-85 39 -85 86c0 46 37 84 85 84z" />
    <glyph glyph-name="AE" unicode="&#xc6;" horiz-adv-x="857" 
d="M8 0l365 700h430v-127h-218v-156h187v-125h-187v-166h227v-126h-368v180h-192l-91 -180h-153zM439 563l-135 -266h140v266h-5z" />
    <glyph glyph-name="Eth" unicode="&#xd0;" horiz-adv-x="666" 
d="M22 290v124h56v286h185c230 0 372 -131 372 -350c0 -224 -144 -350 -372 -350h-185v290h-56zM219 122h50c132 0 219 77 219 228c0 147 -87 227 -219 227h-50v-163h109v-124h-109v-168z" />
    <glyph glyph-name="multiply" unicode="&#xd7;" horiz-adv-x="529" 
d="M415 69l-152 162l-152 -162l-78 78l154 163l-154 163l78 78l152 -162l152 162l78 -78l-154 -163l154 -163z" />
    <glyph glyph-name="Thorn" unicode="&#xde;" horiz-adv-x="542" 
d="M67 0v700h141v-123h82c137 0 230 -86 230 -218c0 -130 -97 -221 -229 -221h-83v-138h-141zM208 260h63c62 0 104 40 104 99c0 58 -43 96 -102 96h-65v-195z" />
    <glyph glyph-name="germandbls" unicode="&#xdf;" horiz-adv-x="560" 
d="M261 723c138 0 216 -61 216 -166c0 -59 -36 -101 -65 -117c66 -32 124 -90 124 -199c0 -147 -113 -241 -284 -241v116c89 0 146 47 146 126c0 86 -67 123 -146 123v110c55 0 90 25 90 69c0 33 -26 63 -76 63c-48 0 -74 -27 -74 -73v-534h-138v542c0 133 95 181 207 181z
" />
    <glyph glyph-name="eth" unicode="&#xf0;" horiz-adv-x="588" 
d="M25 250c0 150 112 250 248 250c20 0 46 -4 59 -8c-16 25 -41 49 -63 65l-159 -57l-12 87l91 34c-28 20 -57 38 -85 54l79 69c47 -20 99 -50 140 -77l132 50l13 -90l-70 -26c96 -86 161 -195 161 -325c0 -152 -81 -289 -269 -289c-162 0 -265 118 -265 263zM163 250
c0 -78 47 -142 126 -142c89 0 132 65 132 146c0 72 -50 133 -126 133c-85 0 -132 -61 -132 -137z" />
    <glyph glyph-name="divide" unicode="&#xf7;" horiz-adv-x="551" 
d="M275 431c-40 0 -71 32 -71 70c0 40 31 73 71 73s72 -33 72 -73c0 -38 -32 -70 -72 -70zM275 49c-40 0 -71 33 -71 71c0 40 31 72 71 72s72 -32 72 -72c0 -38 -32 -71 -72 -71zM37 256v111h477v-111h-477z" />
    <glyph glyph-name="thorn" unicode="&#xfe;" horiz-adv-x="621" 
d="M54 -187v910h138v-247c19 20 67 60 147 60c150 0 256 -114 256 -274c0 -162 -98 -275 -248 -275c-90 0 -142 50 -155 67v-241h-138zM188 263c0 -98 58 -154 134 -154c80 0 134 63 134 154c0 92 -56 151 -134 151c-84 0 -134 -68 -134 -151z" />
    <glyph glyph-name="Dcroat" unicode="&#x110;" horiz-adv-x="665" 
d="M22 290v124h56v286h185c230 0 371 -131 371 -350c0 -224 -143 -350 -371 -350h-185v290h-56zM219 122h50c132 0 219 77 219 228c0 147 -87 227 -219 227h-50v-163h109v-124h-109v-168z" />
    <glyph glyph-name="dotlessi" unicode="&#x131;" 
d="M54 0v523h138v-523h-138z" />
    <glyph glyph-name="florin" unicode="&#x192;" horiz-adv-x="476" 
d="M285 323l-43 -327c-20 -148 -111 -188 -206 -188c-24 0 -52 4 -63 6l16 115c9 -2 21 -4 35 -4c58 0 75 26 86 106l39 292h-60v112h75l13 99c18 137 116 177 204 177c37 0 64 -6 64 -6l-15 -115c-5 1 -20 4 -36 4c-43 0 -74 -18 -82 -74l-12 -85h87v-112h-102z" />
    <glyph glyph-name="circumflex" unicode="&#x2c6;" horiz-adv-x="445" 
d="M271 584l-49 71l-49 -71h-117l95 140h142l95 -140h-117z" />
    <glyph glyph-name="caron" unicode="&#x2c7;" horiz-adv-x="445" 
d="M222 653l49 71h117l-95 -140h-142l-95 140h117z" />
    <glyph glyph-name="breve" unicode="&#x2d8;" horiz-adv-x="445" 
d="M221 581c-96 0 -151 60 -151 143h99c0 -31 11 -62 52 -62c42 0 53 31 53 62h99c0 -83 -54 -143 -152 -143z" />
    <glyph glyph-name="dotaccent" unicode="&#x2d9;" horiz-adv-x="445" 
d="M142 649c0 45 35 79 80 79c46 0 81 -34 81 -79s-35 -79 -81 -79c-45 0 -80 34 -80 79z" />
    <glyph glyph-name="ring" unicode="&#x2da;" horiz-adv-x="445" 
d="M221 564c-60 0 -106 41 -106 99c0 59 46 99 106 99c62 0 108 -40 108 -98c0 -59 -46 -100 -108 -100zM222 624c23 0 38 16 38 40c0 22 -15 38 -38 38s-38 -16 -38 -39s15 -39 38 -39z" />
    <glyph glyph-name="ogonek" unicode="&#x2db;" horiz-adv-x="445" 
d="M138 -108c0 56 47 94 77 108h92c-12 -5 -55 -26 -55 -64c0 -27 28 -40 52 -40v-98c-7 -2 -22 -4 -35 -4c-62 0 -131 19 -131 98z" />
    <glyph glyph-name="tilde" unicode="&#x2dc;" horiz-adv-x="445" 
d="M290 587c-53 0 -91 37 -125 37c-20 0 -32 -14 -32 -38h-87c0 80 44 134 110 134c55 0 91 -37 123 -37c20 0 32 15 32 38h87c0 -82 -43 -134 -108 -134z" />
    <glyph glyph-name="hungarumlaut" unicode="&#x2dd;" horiz-adv-x="465" 
d="M219 581l68 144h132l-96 -144h-104zM45 581l67 144h133l-97 -144h-103z" />
    <glyph glyph-name="endash" unicode="&#x2013;" horiz-adv-x="648" 
d="M45 251v113h558v-113h-558z" />
    <glyph glyph-name="emdash" unicode="&#x2014;" horiz-adv-x="918" 
d="M45 251v113h827v-113h-827z" />
    <glyph glyph-name="quoteleft" unicode="&#x2018;" horiz-adv-x="225" 
d="M191 672c-21 -14 -57 -49 -62 -81c45 -10 69 -47 69 -83c0 -47 -37 -86 -84 -86c-48 0 -88 33 -88 92c0 91 50 173 111 218z" />
    <glyph glyph-name="quoteright" unicode="&#x2019;" horiz-adv-x="225" 
d="M33 482c21 14 57 49 62 81c-45 10 -69 47 -69 83c0 47 37 86 84 86c48 0 88 -33 88 -92c0 -91 -50 -173 -111 -218z" />
    <glyph glyph-name="quotesinglbase" unicode="&#x201a;" horiz-adv-x="244" 
d="M44 -93c21 14 57 49 62 81c-45 10 -69 47 -69 83c0 47 37 86 84 86c48 0 88 -33 88 -92c0 -91 -50 -173 -111 -218z" />
    <glyph glyph-name="quotedblleft" unicode="&#x201c;" horiz-adv-x="425" 
d="M191 672c-21 -14 -57 -49 -62 -81c45 -10 69 -47 69 -83c0 -47 -37 -86 -84 -86c-48 0 -88 33 -88 92c0 91 50 173 111 218zM391 672c-21 -14 -57 -49 -62 -81c45 -10 69 -47 69 -83c0 -47 -37 -86 -84 -86c-48 0 -88 33 -88 92c0 91 50 173 111 218z" />
    <glyph glyph-name="quotedblright" unicode="&#x201d;" horiz-adv-x="425" 
d="M233 482c21 14 57 49 62 81c-45 10 -69 47 -69 83c0 47 37 86 84 86c48 0 88 -33 88 -92c0 -91 -50 -173 -111 -218zM33 482c21 14 57 49 62 81c-45 10 -69 47 -69 83c0 47 37 86 84 86c48 0 88 -33 88 -92c0 -91 -50 -173 -111 -218z" />
    <glyph glyph-name="quotedblbase" unicode="&#x201e;" horiz-adv-x="425" 
d="M33 -93c21 14 57 49 62 81c-45 10 -69 47 -69 83c0 47 37 86 84 86c48 0 88 -33 88 -92c0 -91 -50 -173 -111 -218zM233 -93c21 14 57 49 62 81c-45 10 -69 47 -69 83c0 47 37 86 84 86c48 0 88 -33 88 -92c0 -91 -50 -173 -111 -218z" />
    <glyph glyph-name="dagger" unicode="&#x2020;" horiz-adv-x="425" 
d="M144 0v416h-117v120h117v164h135v-164h119v-120h-119v-416h-135z" />
    <glyph glyph-name="daggerdbl" unicode="&#x2021;" horiz-adv-x="424" 
d="M398 288v-119h-117v-169h-135v169h-119v119h119v122h-119v120h119v170h135v-170h117v-120h-117v-122h117z" />
    <glyph glyph-name="bullet" unicode="&#x2022;" horiz-adv-x="406" 
d="M203 138c-99 0 -172 77 -172 172s73 172 172 172s172 -77 172 -172s-73 -172 -172 -172z" />
    <glyph glyph-name="perthousand" unicode="&#x2030;" horiz-adv-x="1191" 
d="M70 0l530 700h134l-530 -700h-134zM368 546c0 -92 -72 -167 -170 -167s-170 75 -170 167s72 167 170 167s170 -75 170 -167zM133 546c0 -36 25 -67 65 -67s65 31 65 67s-25 67 -65 67s-65 -31 -65 -67zM775 152c0 -92 -72 -167 -170 -167s-170 75 -170 167
s72 167 170 167s170 -75 170 -167zM540 152c0 -36 25 -67 65 -67s65 31 65 67s-25 67 -65 67s-65 -31 -65 -67zM1163 152c0 -92 -72 -167 -170 -167s-170 75 -170 167s72 167 170 167s170 -75 170 -167zM928 152c0 -36 25 -67 65 -67s65 31 65 67s-25 67 -65 67
s-65 -31 -65 -67z" />
    <glyph glyph-name="guilsinglleft" unicode="&#x2039;" horiz-adv-x="302" 
d="M150 106l-122 187l122 188h123l-122 -188l122 -187h-123z" />
    <glyph glyph-name="guilsinglright" unicode="&#x203a;" horiz-adv-x="302" 
d="M273 293l-122 -187h-123l122 187l-122 188h123z" />
    <glyph glyph-name="fraction" unicode="&#x2044;" horiz-adv-x="460" 
d="M102 -41h-118l374 782h119z" />
    <glyph glyph-name="Euro" unicode="&#x20ac;" horiz-adv-x="645" 
d="M24 231v91h50c-1 4 -2 14 -2 29c0 11 1 23 2 32h-50v92h68c43 136 167 238 326 238c80 0 140 -20 179 -45l-58 -115c-25 14 -69 31 -118 31c-80 0 -146 -43 -175 -109h221l-9 -92h-237c-1 -10 -2 -20 -2 -31s1 -22 3 -30h231l-9 -91h-194c30 -67 95 -111 178 -111
c55 0 101 19 122 33l54 -114c-25 -23 -92 -52 -176 -52c-173 0 -295 103 -337 244h-67z" />
    <glyph glyph-name="trademark" unicode="&#x2122;" horiz-adv-x="777" 
d="M120 339v276h-88v85h269v-85h-87v-276h-94zM583 379h-86l-71 170v-210h-91v361h119l85 -212l86 212h120v-361h-91v210z" />
    <glyph glyph-name="minus" unicode="&#x2212;" horiz-adv-x="550" 
d="M36 256v111h478v-111h-478z" />
    <glyph glyph-name="quotedbl" unicode="&#x22;" horiz-adv-x="370" 
d="M47 462l-5 238h112l-5 -238h-102zM220 462l-5 238h112l-6 -238h-101z" />
    <glyph glyph-name="exclam" unicode="!" horiz-adv-x="292" 
d="M84 199l-11 501h146l-11 -501h-124zM146 -13c-48 0 -85 38 -85 84c0 47 37 86 85 86s85 -39 85 -86c0 -46 -37 -84 -85 -84z" />
    <glyph glyph-name="ampersand" unicode="&#x26;" horiz-adv-x="655" 
d="M544 -20l-68 72c-42 -36 -108 -65 -190 -65c-164 0 -259 91 -259 214c0 89 45 148 117 196c-29 34 -58 76 -58 135c0 101 77 181 204 181c133 0 208 -78 208 -184c0 -85 -55 -143 -129 -188l104 -100c14 29 18 54 18 94h129c0 -70 -13 -133 -53 -194l70 -73zM288 111
c43 0 79 18 98 37l-160 159c-37 -18 -60 -53 -60 -95c0 -66 59 -101 122 -101zM213 525c0 -45 34 -78 75 -111c49 29 86 66 86 111c0 44 -31 77 -82 77c-46 0 -79 -33 -79 -77z" />
    <glyph glyph-name="section" unicode="&#xa7;" horiz-adv-x="511" 
d="M477 235c0 -60 -33 -107 -87 -133c43 -34 76 -77 76 -142c0 -108 -81 -183 -209 -183c-140 0 -205 98 -223 149l115 50c15 -32 50 -72 108 -72c41 0 68 22 68 58c0 35 -26 57 -66 81l-125 75c-59 35 -101 82 -101 157c0 59 34 107 86 132c-43 34 -75 77 -75 142
c0 108 81 184 210 184c140 0 203 -99 221 -150l-115 -50c-15 33 -49 73 -106 73c-41 0 -69 -25 -69 -59c0 -35 26 -57 65 -81l115 -68c66 -39 112 -88 112 -163zM348 232c0 26 -17 45 -41 58l-83 45c-39 -1 -62 -27 -62 -58c0 -24 13 -41 31 -51l92 -52c39 1 63 27 63 58z
" />
    <glyph glyph-name="oe" unicode="&#x153;" horiz-adv-x="979" 
d="M25 260c0 159 121 276 280 276c88 0 161 -34 209 -91c43 57 109 91 187 91c163 0 255 -108 255 -279c0 -10 0 -20 -1 -30h-369c3 -71 59 -120 137 -120c71 0 112 42 127 64l91 -69c-20 -37 -91 -115 -221 -115c-90 0 -161 34 -206 91c-48 -56 -123 -91 -209 -91
c-163 0 -280 115 -280 273zM163 260c0 -89 60 -151 142 -151c83 0 145 64 145 153s-62 152 -145 152s-142 -64 -142 -154zM591 317h224c-3 64 -48 106 -112 106c-65 0 -107 -46 -112 -106z" />
    <glyph glyph-name="commaaccent" unicode="&#xf6c3;" horiz-adv-x="292" 
d="M79 -240c18 14 42 38 49 65c-39 8 -59 41 -59 72c0 41 34 74 75 74c45 0 78 -34 78 -86c0 -72 -40 -138 -95 -176z" />
    <glyph glyph-name="aacute" unicode="&#xe1;" horiz-adv-x="526" 
d="M24 162c0 103 81 173 203 173c53 0 94 -16 113 -29v34c0 46 -34 77 -95 77c-52 0 -100 -17 -139 -37l-52 94c47 32 126 62 206 62c168 0 218 -88 218 -205v-331h-122l-9 34c-27 -29 -67 -47 -127 -47c-106 0 -196 65 -196 175zM162 166c0 -43 39 -72 91 -72s90 28 90 72
c0 46 -38 73 -91 73s-90 -30 -90 -73zM195 581l67 144h145l-97 -144h-115z" />
    <glyph glyph-name="aring" unicode="&#xe5;" horiz-adv-x="526" 
d="M24 162c0 103 81 173 203 173c53 0 94 -16 113 -29v34c0 46 -34 77 -95 77c-52 0 -100 -17 -139 -37l-52 94c47 32 126 62 206 62c168 0 218 -88 218 -205v-331h-122l-9 34c-27 -29 -67 -47 -127 -47c-106 0 -196 65 -196 175zM162 166c0 -43 39 -72 91 -72s90 28 90 72
c0 46 -38 73 -91 73s-90 -30 -90 -73zM267 564c-60 0 -106 41 -106 99c0 59 46 99 106 99c62 0 108 -40 108 -98c0 -59 -46 -100 -108 -100zM268 624c23 0 38 16 38 40c0 22 -15 38 -38 38s-38 -16 -38 -39s15 -39 38 -39z" />
    <glyph glyph-name="atilde" unicode="&#xe3;" horiz-adv-x="526" 
d="M24 162c0 103 81 173 203 173c53 0 94 -16 113 -29v34c0 46 -34 77 -95 77c-52 0 -100 -17 -139 -37l-52 94c47 32 126 62 206 62c168 0 218 -88 218 -205v-331h-122l-9 34c-27 -29 -67 -47 -127 -47c-106 0 -196 65 -196 175zM162 166c0 -43 39 -72 91 -72s90 28 90 72
c0 46 -38 73 -91 73s-90 -30 -90 -73zM326 587c-53 0 -91 37 -125 37c-20 0 -32 -14 -32 -38h-87c0 80 44 134 110 134c55 0 91 -37 123 -37c20 0 32 15 32 38h87c0 -82 -43 -134 -108 -134z" />
    <glyph glyph-name="adieresis" unicode="&#xe4;" horiz-adv-x="526" 
d="M24 162c0 103 81 173 203 173c53 0 94 -16 113 -29v34c0 46 -34 77 -95 77c-52 0 -100 -17 -139 -37l-52 94c47 32 126 62 206 62c168 0 218 -88 218 -205v-331h-122l-9 34c-27 -29 -67 -47 -127 -47c-106 0 -196 65 -196 175zM162 166c0 -43 39 -72 91 -72s90 28 90 72
c0 46 -38 73 -91 73s-90 -30 -90 -73zM172 585c-40 0 -68 30 -68 68c0 37 28 68 68 68c39 0 68 -31 68 -68c0 -38 -29 -68 -68 -68zM364 585c-41 0 -68 30 -68 68c0 37 27 68 68 68c39 0 68 -31 68 -68c0 -38 -29 -68 -68 -68z" />
    <glyph glyph-name="acircumflex" unicode="&#xe2;" horiz-adv-x="526" 
d="M24 162c0 103 81 173 203 173c53 0 94 -16 113 -29v34c0 46 -34 77 -95 77c-52 0 -100 -17 -139 -37l-52 94c47 32 126 62 206 62c168 0 218 -88 218 -205v-331h-122l-9 34c-27 -29 -67 -47 -127 -47c-106 0 -196 65 -196 175zM162 166c0 -43 39 -72 91 -72s90 28 90 72
c0 46 -38 73 -91 73s-90 -30 -90 -73zM312 584l-49 71l-49 -71h-117l95 140h142l95 -140h-117z" />
    <glyph glyph-name="agrave" unicode="&#xe0;" horiz-adv-x="526" 
d="M24 162c0 103 81 173 203 173c53 0 94 -16 113 -29v34c0 46 -34 77 -95 77c-52 0 -100 -17 -139 -37l-52 94c47 32 126 62 206 62c168 0 218 -88 218 -205v-331h-122l-9 34c-27 -29 -67 -47 -127 -47c-106 0 -196 65 -196 175zM162 166c0 -43 39 -72 91 -72s90 28 90 72
c0 46 -38 73 -91 73s-90 -30 -90 -73zM272 725l67 -144h-115l-97 144h145z" />
    <glyph glyph-name="eacute" unicode="&#xe9;" horiz-adv-x="559" 
d="M26 260c0 158 107 276 256 276c162 0 254 -108 254 -279c0 -10 0 -20 -1 -30h-368c3 -70 59 -120 136 -120c71 0 112 42 127 64l91 -69c-20 -37 -90 -115 -220 -115c-168 0 -275 116 -275 273zM171 317h225c-3 64 -49 106 -112 106c-65 0 -107 -46 -113 -106zM211 581
l67 144h145l-97 -144h-115z" />
    <glyph glyph-name="egrave" unicode="&#xe8;" horiz-adv-x="559" 
d="M26 260c0 158 107 276 256 276c162 0 254 -108 254 -279c0 -10 0 -20 -1 -30h-368c3 -70 59 -120 136 -120c71 0 112 42 127 64l91 -69c-20 -37 -90 -115 -220 -115c-168 0 -275 116 -275 273zM171 317h225c-3 64 -49 106 -112 106c-65 0 -107 -46 -113 -106zM290 725
l67 -144h-115l-97 144h145z" />
    <glyph glyph-name="ecircumflex" unicode="&#xea;" horiz-adv-x="559" 
d="M26 260c0 158 107 276 256 276c162 0 254 -108 254 -279c0 -10 0 -20 -1 -30h-368c3 -70 59 -120 136 -120c71 0 112 42 127 64l91 -69c-20 -37 -90 -115 -220 -115c-168 0 -275 116 -275 273zM171 317h225c-3 64 -49 106 -112 106c-65 0 -107 -46 -113 -106zM336 584
l-49 71l-49 -71h-117l95 140h142l95 -140h-117z" />
    <glyph glyph-name="edieresis" unicode="&#xeb;" horiz-adv-x="559" 
d="M26 260c0 158 107 276 256 276c162 0 254 -108 254 -279c0 -10 0 -20 -1 -30h-368c3 -70 59 -120 136 -120c71 0 112 42 127 64l91 -69c-20 -37 -90 -115 -220 -115c-168 0 -275 116 -275 273zM171 317h225c-3 64 -49 106 -112 106c-65 0 -107 -46 -113 -106zM192 585
c-40 0 -68 30 -68 68c0 37 28 68 68 68c39 0 68 -31 68 -68c0 -38 -29 -68 -68 -68zM384 585c-41 0 -68 30 -68 68c0 37 27 68 68 68c39 0 68 -31 68 -68c0 -38 -29 -68 -68 -68z" />
    <glyph glyph-name="ntilde" unicode="&#xf1;" horiz-adv-x="560" 
d="M329 536c149 0 181 -123 181 -234v-302h-138v318c0 58 -40 94 -87 94c-57 0 -93 -42 -93 -98v-314h-138v523h135v-61c22 36 72 74 140 74zM350 587c-53 0 -91 37 -125 37c-20 0 -32 -14 -32 -38h-87c0 80 44 134 110 134c55 0 91 -37 123 -37c20 0 32 15 32 38h87
c0 -82 -43 -134 -108 -134z" />
    <glyph glyph-name="oacute" unicode="&#xf3;" horiz-adv-x="613" 
d="M25 260c0 159 122 276 281 276c160 0 282 -118 282 -276s-118 -273 -282 -273c-163 0 -281 115 -281 273zM163 260c0 -89 61 -151 143 -151c83 0 144 62 144 151s-61 154 -144 154s-143 -64 -143 -154zM233 581l67 144h145l-97 -144h-115z" />
    <glyph glyph-name="otilde" unicode="&#xf5;" horiz-adv-x="613" 
d="M25 260c0 159 122 276 281 276c160 0 282 -118 282 -276s-118 -273 -282 -273c-163 0 -281 115 -281 273zM163 260c0 -89 61 -151 143 -151c83 0 144 62 144 151s-61 154 -144 154s-143 -64 -143 -154zM376 587c-53 0 -91 37 -125 37c-20 0 -32 -14 -32 -38h-87
c0 80 44 134 110 134c55 0 91 -37 123 -37c20 0 32 15 32 38h87c0 -82 -43 -134 -108 -134z" />
    <glyph glyph-name="odieresis" unicode="&#xf6;" horiz-adv-x="613" 
d="M25 260c0 159 122 276 281 276c160 0 282 -118 282 -276s-118 -273 -282 -273c-163 0 -281 115 -281 273zM163 260c0 -89 61 -151 143 -151c83 0 144 62 144 151s-61 154 -144 154s-143 -64 -143 -154zM214 585c-40 0 -68 30 -68 68c0 37 28 68 68 68c39 0 68 -31 68 -68
c0 -38 -29 -68 -68 -68zM406 585c-41 0 -68 30 -68 68c0 37 27 68 68 68c39 0 68 -31 68 -68c0 -38 -29 -68 -68 -68z" />
    <glyph glyph-name="ocircumflex" unicode="&#xf4;" horiz-adv-x="613" 
d="M25 260c0 159 122 276 281 276c160 0 282 -118 282 -276s-118 -273 -282 -273c-163 0 -281 115 -281 273zM163 260c0 -89 61 -151 143 -151c83 0 144 62 144 151s-61 154 -144 154s-143 -64 -143 -154zM359 584l-49 71l-49 -71h-117l95 140h142l95 -140h-117z" />
    <glyph glyph-name="ograve" unicode="&#xf2;" horiz-adv-x="613" 
d="M25 260c0 159 122 276 281 276c160 0 282 -118 282 -276s-118 -273 -282 -273c-163 0 -281 115 -281 273zM163 260c0 -89 61 -151 143 -151c83 0 144 62 144 151s-61 154 -144 154s-143 -64 -143 -154zM306 725l67 -144h-115l-97 144h145z" />
    <glyph glyph-name="uacute" unicode="&#xfa;" horiz-adv-x="556" 
d="M231 -13c-149 0 -181 123 -181 234v302h138v-318c0 -58 40 -94 87 -94c57 0 93 42 93 98v314h138v-523h-135v61c-22 -36 -72 -74 -140 -74zM207 581l67 144h145l-97 -144h-115z" />
    <glyph glyph-name="udieresis" unicode="&#xfc;" horiz-adv-x="556" 
d="M231 -13c-149 0 -181 123 -181 234v302h138v-318c0 -58 40 -94 87 -94c57 0 93 42 93 98v314h138v-523h-135v61c-22 -36 -72 -74 -140 -74zM188 585c-40 0 -68 30 -68 68c0 37 28 68 68 68c39 0 68 -31 68 -68c0 -38 -29 -68 -68 -68zM380 585c-41 0 -68 30 -68 68
c0 37 27 68 68 68c39 0 68 -31 68 -68c0 -38 -29 -68 -68 -68z" />
    <glyph glyph-name="ucircumflex" unicode="&#xfb;" horiz-adv-x="556" 
d="M231 -13c-149 0 -181 123 -181 234v302h138v-318c0 -58 40 -94 87 -94c57 0 93 42 93 98v314h138v-523h-135v61c-22 -36 -72 -74 -140 -74zM330 584l-49 71l-49 -71h-117l95 140h142l95 -140h-117z" />
    <glyph glyph-name="ugrave" unicode="&#xf9;" horiz-adv-x="556" 
d="M231 -13c-149 0 -181 123 -181 234v302h138v-318c0 -58 40 -94 87 -94c57 0 93 42 93 98v314h138v-523h-135v61c-22 -36 -72 -74 -140 -74zM288 725l67 -144h-115l-97 144h145z" />
    <glyph glyph-name="Adieresis" unicode="&#xc4;" horiz-adv-x="660" 
d="M449 180h-238l-61 -180h-142l248 700h148l248 -700h-142zM412 297l-82 252l-81 -252h163zM234 744c-40 0 -68 30 -68 68c0 37 28 68 68 68c39 0 68 -31 68 -68c0 -38 -29 -68 -68 -68zM426 744c-41 0 -68 30 -68 68c0 37 27 68 68 68c39 0 68 -31 68 -68
c0 -38 -29 -68 -68 -68z" />
    <glyph glyph-name="Odieresis" unicode="&#xd6;" horiz-adv-x="789" 
d="M394 -13c-215 0 -364 157 -364 363c0 204 149 363 364 363s364 -159 364 -363c0 -206 -149 -363 -364 -363zM394 581c-126 0 -217 -99 -217 -231c0 -134 91 -231 217 -231s217 97 217 231c0 132 -91 231 -217 231zM301 744c-40 0 -68 30 -68 68c0 37 28 68 68 68
c39 0 68 -31 68 -68c0 -38 -29 -68 -68 -68zM493 744c-41 0 -68 30 -68 68c0 37 27 68 68 68c39 0 68 -31 68 -68c0 -38 -29 -68 -68 -68z" />
    <glyph glyph-name="Udieresis" unicode="&#xdc;" horiz-adv-x="692" 
d="M346 -13c-181 0 -282 111 -282 276v437h141v-437c0 -89 51 -145 141 -145s141 56 141 145v437h141v-437c0 -165 -101 -276 -282 -276zM253 744c-40 0 -68 30 -68 68c0 37 28 68 68 68c39 0 68 -31 68 -68c0 -38 -29 -68 -68 -68zM445 744c-41 0 -68 30 -68 68
c0 37 27 68 68 68c39 0 68 -31 68 -68c0 -38 -29 -68 -68 -68z" />
    <glyph glyph-name="Edieresis" unicode="&#xcb;" horiz-adv-x="481" 
d="M67 0v700h360v-127h-219v-156h188v-125h-188v-166h228v-126h-369zM156 744c-40 0 -68 30 -68 68c0 37 28 68 68 68c39 0 68 -31 68 -68c0 -38 -29 -68 -68 -68zM348 744c-41 0 -68 30 -68 68c0 37 27 68 68 68c39 0 68 -31 68 -68c0 -38 -29 -68 -68 -68z" />
    <glyph glyph-name="Idieresis" unicode="&#xcf;" horiz-adv-x="275" 
d="M67 0v700h141v-700h-141zM48 744c-40 0 -68 30 -68 68c0 37 28 68 68 68c39 0 68 -31 68 -68c0 -38 -29 -68 -68 -68zM240 744c-41 0 -68 30 -68 68c0 37 27 68 68 68c39 0 68 -31 68 -68c0 -38 -29 -68 -68 -68z" />
    <glyph glyph-name="Aring" unicode="&#xc5;" horiz-adv-x="660" 
d="M449 180h-238l-61 -180h-142l248 700h148l248 -700h-142zM412 297l-82 252l-81 -252h163zM329 731c-60 0 -106 41 -106 99c0 59 46 99 106 99c62 0 108 -40 108 -98c0 -59 -46 -100 -108 -100zM330 791c23 0 38 16 38 40c0 22 -15 38 -38 38s-38 -16 -38 -39
s15 -39 38 -39z" />
    <glyph glyph-name="Eacute" unicode="&#xc9;" horiz-adv-x="481" 
d="M67 0v700h360v-127h-219v-156h188v-125h-188v-166h228v-126h-369zM178 738l67 144h145l-97 -144h-115z" />
    <glyph glyph-name="Aacute" unicode="&#xc1;" horiz-adv-x="660" 
d="M449 180h-238l-61 -180h-142l248 700h148l248 -700h-142zM412 297l-82 252l-81 -252h163zM262 738l67 144h145l-97 -144h-115z" />
    <glyph glyph-name="Uacute" unicode="&#xda;" horiz-adv-x="692" 
d="M346 -13c-181 0 -282 111 -282 276v437h141v-437c0 -89 51 -145 141 -145s141 56 141 145v437h141v-437c0 -165 -101 -276 -282 -276zM280 738l67 144h145l-97 -144h-115z" />
    <glyph glyph-name="Iacute" unicode="&#xcd;" horiz-adv-x="275" 
d="M67 0v700h141v-700h-141zM69 738l67 144h145l-97 -144h-115z" />
    <glyph glyph-name="Oacute" unicode="&#xd3;" horiz-adv-x="788" 
d="M394 -13c-215 0 -364 157 -364 363c0 204 149 363 364 363s364 -159 364 -363c0 -206 -149 -363 -364 -363zM394 581c-126 0 -217 -99 -217 -231c0 -134 91 -231 217 -231s217 97 217 231c0 132 -91 231 -217 231zM323 738l67 144h145l-97 -144h-115z" />
    <glyph glyph-name="ydieresis" unicode="&#xff;" horiz-adv-x="540" 
d="M266 -179h-132l73 192l-201 510h148l117 -341l118 341h144zM176 585c-40 0 -68 30 -68 68c0 37 28 68 68 68c39 0 68 -31 68 -68c0 -38 -29 -68 -68 -68zM368 585c-41 0 -68 30 -68 68c0 37 27 68 68 68c39 0 68 -31 68 -68c0 -38 -29 -68 -68 -68z" />
    <glyph glyph-name="Ydieresis" unicode="&#x178;" horiz-adv-x="584" 
d="M222 0v320l-215 380h159l126 -251l126 251h159l-215 -380v-320h-140zM197 750c-40 0 -68 30 -68 68c0 37 28 68 68 68c39 0 68 -31 68 -68c0 -38 -29 -68 -68 -68zM389 750c-41 0 -68 30 -68 68c0 37 27 68 68 68c39 0 68 -31 68 -68c0 -38 -29 -68 -68 -68z" />
    <glyph glyph-name="Agrave" unicode="&#xc0;" horiz-adv-x="660" 
d="M449 180h-238l-61 -180h-142l248 700h148l248 -700h-142zM412 297l-82 252l-81 -252h163zM324 882l67 -144h-115l-97 144h145z" />
    <glyph glyph-name="Ograve" unicode="&#xd2;" horiz-adv-x="788" 
d="M394 -13c-215 0 -364 157 -364 363c0 204 149 363 364 363s364 -159 364 -363c0 -206 -149 -363 -364 -363zM394 581c-126 0 -217 -99 -217 -231c0 -134 91 -231 217 -231s217 97 217 231c0 132 -91 231 -217 231zM394 882l67 -144h-115l-97 144h145z" />
    <glyph glyph-name="Igrave" unicode="&#xcc;" horiz-adv-x="275" 
d="M67 0v700h141v-700h-141zM147 882l67 -144h-115l-97 144h145z" />
    <glyph glyph-name="Egrave" unicode="&#xc8;" horiz-adv-x="481" 
d="M67 0v700h360v-127h-219v-156h188v-125h-188v-166h228v-126h-369zM262 882l67 -144h-115l-97 144h145z" />
    <glyph glyph-name="Ugrave" unicode="&#xd9;" horiz-adv-x="692" 
d="M346 -13c-181 0 -282 111 -282 276v437h141v-437c0 -89 51 -145 141 -145s141 56 141 145v437h141v-437c0 -165 -101 -276 -282 -276zM350 882l67 -144h-115l-97 144h145z" />
    <glyph glyph-name="Ntilde" unicode="&#xd1;" horiz-adv-x="713" 
d="M507 0l-302 474v-474h-139v700h143l299 -478v478h139v-700h-140zM428 744c-53 0 -91 37 -125 37c-20 0 -32 -14 -32 -38h-87c0 80 44 134 110 134c55 0 91 -37 123 -37c20 0 32 15 32 38h87c0 -82 -43 -134 -108 -134z" />
    <glyph glyph-name="Atilde" unicode="&#xc3;" horiz-adv-x="660" 
d="M449 180h-238l-61 -180h-142l248 700h148l248 -700h-142zM412 297l-82 252l-81 -252h163zM398 744c-53 0 -91 37 -125 37c-20 0 -32 -14 -32 -38h-87c0 80 44 134 110 134c55 0 91 -37 123 -37c20 0 32 15 32 38h87c0 -82 -43 -134 -108 -134z" />
    <glyph glyph-name="Otilde" unicode="&#xd5;" horiz-adv-x="788" 
d="M394 -13c-215 0 -364 157 -364 363c0 204 149 363 364 363s364 -159 364 -363c0 -206 -149 -363 -364 -363zM394 581c-126 0 -217 -99 -217 -231c0 -134 91 -231 217 -231s217 97 217 231c0 132 -91 231 -217 231zM463 744c-53 0 -91 37 -125 37c-20 0 -32 -14 -32 -38
h-87c0 80 44 134 110 134c55 0 91 -37 123 -37c20 0 32 15 32 38h87c0 -82 -43 -134 -108 -134z" />
    <glyph glyph-name="Acircumflex" unicode="&#xc2;" horiz-adv-x="660" 
d="M449 180h-238l-61 -180h-142l248 700h148l248 -700h-142zM412 297l-82 252l-81 -252h163zM379 739l-49 71l-49 -71h-117l95 140h142l95 -140h-117z" />
    <glyph glyph-name="Ecircumflex" unicode="&#xca;" horiz-adv-x="481" 
d="M67 0v700h360v-127h-219v-156h188v-125h-188v-166h228v-126h-369zM300 739l-49 71l-49 -71h-117l95 140h142l95 -140h-117z" />
    <glyph glyph-name="Icircumflex" unicode="&#xce;" horiz-adv-x="275" 
d="M67 0v700h141v-700h-141zM189 739l-49 71l-49 -71h-117l95 140h142l95 -140h-117z" />
    <glyph glyph-name="Ocircumflex" unicode="&#xd4;" horiz-adv-x="788" 
d="M394 -13c-215 0 -364 157 -364 363c0 204 149 363 364 363s364 -159 364 -363c0 -206 -149 -363 -364 -363zM394 581c-126 0 -217 -99 -217 -231c0 -134 91 -231 217 -231s217 97 217 231c0 132 -91 231 -217 231zM446 739l-49 71l-49 -71h-117l95 140h142l95 -140h-117z
" />
    <glyph glyph-name="Ucircumflex" unicode="&#xdb;" horiz-adv-x="692" 
d="M346 -13c-181 0 -282 111 -282 276v437h141v-437c0 -89 51 -145 141 -145s141 56 141 145v437h141v-437c0 -165 -101 -276 -282 -276zM395 739l-49 71l-49 -71h-117l95 140h142l95 -140h-117z" />
    <glyph glyph-name="Yacute" unicode="&#xdd;" horiz-adv-x="584" 
d="M222 0v320l-215 380h159l126 -251l126 251h159l-215 -380v-320h-140zM228 738l67 144h145l-97 -144h-115z" />
    <glyph glyph-name="Tcommaaccent" unicode="&#x162;" horiz-adv-x="511" 
d="M185 0v573h-164v127h468v-127h-163v-573h-47l-6 -39c49 -10 76 -48 76 -92c0 -65 -55 -102 -123 -102c-20 0 -48 6 -58 9l16 71c8 -2 20 -5 33 -5c23 0 43 10 43 33c0 22 -25 31 -50 31c-8 0 -17 -2 -17 -2l14 96h-22z" />
    <glyph glyph-name="tcommaaccent" unicode="&#x163;" horiz-adv-x="333" 
d="M67 523v110h136v-110h98v-112h-98v-202c0 -78 24 -94 77 -94c9 0 14 0 25 1v-118s-21 -5 -59 -5c-12 0 -23 1 -34 2l-5 -34c49 -10 76 -48 76 -92c0 -65 -55 -102 -123 -102c-20 0 -48 6 -58 9l16 71c8 -2 20 -5 33 -5c23 0 43 10 43 33c0 22 -25 31 -50 31
c-8 0 -17 -2 -17 -2l13 115c-51 32 -74 94 -74 186v206h-55v112h56z" />
    <glyph glyph-name="yacute" unicode="&#xfd;" horiz-adv-x="540" 
d="M266 -179h-132l73 192l-201 510h148l117 -341l118 341h144zM203 581l67 144h145l-97 -144h-115z" />
    <glyph glyph-name="Amacron" unicode="&#x100;" horiz-adv-x="660" 
d="M449 180h-238l-61 -180h-142l248 700h148l248 -700h-142zM412 297l-82 252l-81 -252h163zM196 751v101h268v-101h-268z" />
    <glyph glyph-name="amacron" unicode="&#x101;" horiz-adv-x="526" 
d="M24 162c0 103 81 173 203 173c53 0 94 -16 113 -29v34c0 46 -34 77 -95 77c-52 0 -100 -17 -139 -37l-52 94c47 32 126 62 206 62c168 0 218 -88 218 -205v-331h-122l-9 34c-27 -29 -67 -47 -127 -47c-106 0 -196 65 -196 175zM162 166c0 -43 39 -72 91 -72s90 28 90 72
c0 46 -38 73 -91 73s-90 -30 -90 -73zM133 603v101h268v-101h-268z" />
    <glyph glyph-name="Abreve" unicode="&#x102;" horiz-adv-x="660" 
d="M449 180h-238l-61 -180h-142l248 700h148l248 -700h-142zM412 297l-82 252l-81 -252h163zM330 741c-96 0 -151 60 -151 143h99c0 -31 11 -62 52 -62c42 0 53 31 53 62h99c0 -83 -54 -143 -152 -143z" />
    <glyph glyph-name="abreve" unicode="&#x103;" horiz-adv-x="526" 
d="M24 162c0 103 81 173 203 173c53 0 94 -16 113 -29v34c0 46 -34 77 -95 77c-52 0 -100 -17 -139 -37l-52 94c47 32 126 62 206 62c168 0 218 -88 218 -205v-331h-122l-9 34c-27 -29 -67 -47 -127 -47c-106 0 -196 65 -196 175zM162 166c0 -43 39 -72 91 -72s90 28 90 72
c0 46 -38 73 -91 73s-90 -30 -90 -73zM261 581c-96 0 -151 60 -151 143h99c0 -31 11 -62 52 -62c42 0 53 31 53 62h99c0 -83 -54 -143 -152 -143z" />
    <glyph glyph-name="scommaaccent" unicode="&#x219;" horiz-adv-x="435" 
d="M214 -13c-103 0 -167 52 -195 97l81 72c26 -30 61 -57 120 -57c39 0 64 17 64 47c0 80 -247 49 -247 235c0 97 83 155 190 155c99 0 154 -52 179 -93l-91 -68c-16 20 -45 50 -94 50c-32 0 -54 -16 -54 -42c0 -83 248 -43 248 -230c0 -102 -88 -166 -201 -166zM154 -240
c18 14 42 38 49 65c-39 8 -59 41 -59 72c0 41 34 74 75 74c45 0 78 -34 78 -86c0 -72 -40 -138 -95 -176z" />
    <glyph glyph-name="Scommaaccent" unicode="&#x218;" horiz-adv-x="521" 
d="M263 713c141 0 199 -102 216 -153l-117 -53c-15 33 -41 76 -102 76c-48 0 -76 -29 -76 -67c0 -116 304 -99 304 -316c0 -123 -88 -213 -234 -213c-150 0 -212 105 -232 162l119 58c19 -46 58 -89 121 -89c52 0 83 27 83 72c0 120 -302 100 -302 324c0 118 86 199 220 199
zM188 -240c18 14 42 38 49 65c-39 8 -59 41 -59 72c0 41 34 74 75 74c45 0 78 -34 78 -86c0 -72 -40 -138 -95 -176z" />
    <glyph glyph-name="Cacute" unicode="&#x106;" horiz-adv-x="638" 
d="M395 -13c-219 0 -365 157 -365 363s154 363 365 363c93 0 163 -31 208 -64l-40 -124c-34 24 -97 56 -168 56c-127 0 -218 -99 -218 -231c0 -134 91 -231 218 -231c76 0 141 34 174 57l40 -123c-42 -31 -112 -66 -214 -66zM303 738l67 144h145l-97 -144h-115z" />
    <glyph glyph-name="zcaron" unicode="&#x17e;" horiz-adv-x="468" 
d="M435 437l-236 -322h239v-115h-410v85l236 323h-229v115h400v-86zM237 653l49 71h117l-95 -140h-142l-95 140h117z" />
    <glyph glyph-name="Zcaron" unicode="&#x17d;" horiz-adv-x="603" 
d="M32 0v92l344 483h-334v125h522v-92l-346 -483h349v-125h-535zM300 808l49 71h117l-95 -140h-142l-95 140h117z" />
    <glyph glyph-name="cacute" unicode="&#x107;" horiz-adv-x="490" 
d="M312 109c53 0 95 28 118 47l37 -113c-30 -24 -87 -56 -163 -56c-163 0 -279 114 -279 273s119 276 278 276c77 0 131 -30 165 -56l-39 -116c-23 21 -63 50 -122 50c-89 0 -144 -69 -144 -153c0 -89 62 -152 149 -152zM214 581l67 144h145l-97 -144h-115z" />
    <glyph glyph-name="Ccircumflex" unicode="&#x108;" horiz-adv-x="638" 
d="M395 -13c-219 0 -365 157 -365 363s154 363 365 363c93 0 163 -31 208 -64l-40 -124c-34 24 -97 56 -168 56c-127 0 -218 -99 -218 -231c0 -134 91 -231 218 -231c76 0 141 34 174 57l40 -123c-42 -31 -112 -66 -214 -66zM441 739l-49 71l-49 -71h-117l95 140h142
l95 -140h-117z" />
    <glyph glyph-name="ccircumflex" unicode="&#x109;" horiz-adv-x="490" 
d="M312 109c53 0 95 28 118 47l37 -113c-30 -24 -87 -56 -163 -56c-163 0 -279 114 -279 273s119 276 278 276c77 0 131 -30 165 -56l-39 -116c-23 21 -63 50 -122 50c-89 0 -144 -69 -144 -153c0 -89 62 -152 149 -152zM347 584l-49 71l-49 -71h-117l95 140h142l95 -140
h-117z" />
    <glyph glyph-name="dcaron" unicode="&#x10f;" horiz-adv-x="620" 
d="M598 549l7 174h130l-46 -174h-91zM566 723v-723h-130v54c-14 -17 -66 -67 -155 -67c-150 0 -256 113 -256 274c0 162 98 275 248 275c90 0 142 -50 155 -68v255h138zM432 260c0 98 -58 154 -134 154c-80 0 -134 -63 -134 -154c0 -93 56 -151 134 -151
c84 0 134 68 134 151z" />
    <glyph glyph-name="Cdotaccent" unicode="&#x10a;" horiz-adv-x="638" 
d="M395 -13c-219 0 -365 157 -365 363s154 363 365 363c93 0 163 -31 208 -64l-40 -124c-34 24 -97 56 -168 56c-127 0 -218 -99 -218 -231c0 -134 91 -231 218 -231c76 0 141 34 174 57l40 -123c-42 -31 -112 -66 -214 -66zM315 809c0 45 35 79 80 79c46 0 81 -34 81 -79
s-35 -79 -81 -79c-45 0 -80 34 -80 79z" />
    <glyph glyph-name="cdotaccent" unicode="&#x10b;" horiz-adv-x="490" 
d="M311 109c53 0 95 28 118 47l37 -113c-30 -24 -87 -56 -163 -56c-163 0 -279 114 -279 273s119 276 278 276c77 0 131 -30 165 -56l-39 -116c-23 21 -63 50 -122 50c-89 0 -144 -69 -144 -153c0 -89 62 -152 149 -152zM221 649c0 45 35 79 80 79c46 0 81 -34 81 -79
s-35 -79 -81 -79c-45 0 -80 34 -80 79z" />
    <glyph glyph-name="zdotaccent" unicode="&#x17c;" horiz-adv-x="468" 
d="M435 437l-236 -322h239v-115h-410v85l236 323h-229v115h400v-86zM158 649c0 45 35 79 80 79c46 0 81 -34 81 -79s-35 -79 -81 -79c-45 0 -80 34 -80 79z" />
    <glyph glyph-name="Ccaron" unicode="&#x10c;" horiz-adv-x="638" 
d="M395 -13c-219 0 -365 157 -365 363s154 363 365 363c93 0 163 -31 208 -64l-40 -124c-34 24 -97 56 -168 56c-127 0 -218 -99 -218 -231c0 -134 91 -231 218 -231c76 0 141 34 174 57l40 -123c-42 -31 -112 -66 -214 -66zM392 808l49 71h117l-95 -140h-142l-95 140h117z
" />
    <glyph glyph-name="ccaron" unicode="&#x10d;" horiz-adv-x="490" 
d="M312 109c53 0 95 28 118 47l37 -113c-30 -24 -87 -56 -163 -56c-163 0 -279 114 -279 273s119 276 278 276c77 0 131 -30 165 -56l-39 -116c-23 21 -63 50 -122 50c-89 0 -144 -69 -144 -153c0 -89 62 -152 149 -152zM295 653l49 71h117l-95 -140h-142l-95 140h117z" />
    <glyph glyph-name="Dcaron" unicode="&#x10e;" horiz-adv-x="655" 
d="M67 0v700h186c229 0 371 -131 371 -350c0 -224 -143 -350 -371 -350h-186zM208 122h50c133 0 219 77 219 228c0 147 -86 227 -219 227h-50v-455zM281 808l49 71h117l-95 -140h-142l-95 140h117z" />
    <glyph glyph-name="Emacron" unicode="&#x112;" horiz-adv-x="481" 
d="M67 0v700h360v-127h-219v-156h188v-125h-188v-166h228v-126h-369zM120 751v101h268v-101h-268z" />
    <glyph glyph-name="emacron" unicode="&#x113;" horiz-adv-x="559" 
d="M26 260c0 158 107 276 256 276c162 0 254 -108 254 -279c0 -10 0 -20 -1 -30h-368c3 -70 59 -120 136 -120c71 0 112 42 127 64l91 -69c-20 -37 -90 -115 -220 -115c-168 0 -275 116 -275 273zM171 317h225c-3 64 -49 106 -112 106c-65 0 -107 -46 -113 -106zM155 603
v101h268v-101h-268z" />
    <glyph glyph-name="Ebreve" unicode="&#x114;" horiz-adv-x="481" 
d="M67 0v700h360v-127h-219v-156h188v-125h-188v-166h228v-126h-369zM250 741c-96 0 -151 60 -151 143h99c0 -31 11 -62 52 -62c42 0 53 31 53 62h99c0 -83 -54 -143 -152 -143z" />
    <glyph glyph-name="ebreve" unicode="&#x115;" horiz-adv-x="559" 
d="M26 260c0 158 107 276 256 276c162 0 254 -108 254 -279c0 -10 0 -20 -1 -30h-368c3 -70 59 -120 136 -120c71 0 112 42 127 64l91 -69c-20 -37 -90 -115 -220 -115c-168 0 -275 116 -275 273zM171 317h225c-3 64 -49 106 -112 106c-65 0 -107 -46 -113 -106zM282 581
c-96 0 -151 60 -151 143h99c0 -31 11 -62 52 -62c42 0 53 31 53 62h99c0 -83 -54 -143 -152 -143z" />
    <glyph glyph-name="Edotaccent" unicode="&#x116;" horiz-adv-x="481" 
d="M67 0v700h360v-127h-219v-156h188v-125h-188v-166h228v-126h-369zM177 809c0 45 35 79 80 79c46 0 81 -34 81 -79s-35 -79 -81 -79c-45 0 -80 34 -80 79z" />
    <glyph glyph-name="edotaccent" unicode="&#x117;" horiz-adv-x="559" 
d="M26 260c0 158 107 276 256 276c162 0 254 -108 254 -279c0 -10 0 -20 -1 -30h-368c3 -70 59 -120 136 -120c71 0 112 42 127 64l91 -69c-20 -37 -90 -115 -220 -115c-168 0 -275 116 -275 273zM171 317h225c-3 64 -49 106 -112 106c-65 0 -107 -46 -113 -106zM206 649
c0 45 35 79 80 79c46 0 81 -34 81 -79s-35 -79 -81 -79c-45 0 -80 34 -80 79z" />
    <glyph glyph-name="Ecaron" unicode="&#x11a;" horiz-adv-x="481" 
d="M67 0v700h360v-127h-219v-156h188v-125h-188v-166h228v-126h-369zM259 808l49 71h117l-95 -140h-142l-95 140h117z" />
    <glyph glyph-name="ecaron" unicode="&#x11b;" horiz-adv-x="559" 
d="M26 260c0 158 107 276 256 276c162 0 254 -108 254 -279c0 -10 0 -20 -1 -30h-368c3 -70 59 -120 136 -120c71 0 112 42 127 64l91 -69c-20 -37 -90 -115 -220 -115c-168 0 -275 116 -275 273zM171 317h225c-3 64 -49 106 -112 106c-65 0 -107 -46 -113 -106zM284 653
l49 71h117l-95 -140h-142l-95 140h117z" />
    <glyph glyph-name="Gcircumflex" unicode="&#x11c;" horiz-adv-x="747" 
d="M393 713c147 0 240 -73 276 -116l-89 -92c-21 23 -81 77 -181 77c-137 0 -222 -102 -222 -232c0 -143 96 -231 222 -231c98 0 153 40 168 55v86h-133v119h265v-277c-75 -64 -159 -115 -306 -115c-198 0 -363 142 -363 363c0 201 150 363 363 363zM446 739l-49 71l-49 -71
h-117l95 140h142l95 -140h-117z" />
    <glyph glyph-name="gcircumflex" unicode="&#x11d;" horiz-adv-x="615" 
d="M92 -144l42 106c17 -9 77 -36 149 -36c75 0 144 23 144 104v24c-11 -15 -62 -67 -153 -67c-151 0 -250 113 -250 274s106 275 255 275c88 0 141 -48 156 -68v55h130v-457c0 -195 -127 -258 -281 -258c-72 0 -145 22 -192 48zM431 262c0 89 -54 152 -135 152
c-78 0 -133 -60 -133 -152s56 -153 134 -153c80 0 134 60 134 153zM357 584l-49 71l-49 -71h-117l95 140h142l95 -140h-117z" />
    <glyph glyph-name="Zdotaccent" unicode="&#x17b;" horiz-adv-x="603" 
d="M32 0v92l344 483h-334v125h522v-92l-346 -483h349v-125h-535zM221 809c0 45 35 79 80 79c46 0 81 -34 81 -79s-35 -79 -81 -79c-45 0 -80 34 -80 79z" />
    <glyph glyph-name="zacute" unicode="&#x17a;" horiz-adv-x="468" 
d="M435 437l-236 -322h239v-115h-410v85l236 323h-229v115h400v-86zM158 581l67 144h145l-97 -144h-115z" />
    <glyph glyph-name="Gbreve" unicode="&#x11e;" horiz-adv-x="747" 
d="M393 713c147 0 240 -73 276 -116l-89 -92c-21 23 -81 77 -181 77c-137 0 -222 -102 -222 -232c0 -143 96 -231 222 -231c98 0 153 40 168 55v86h-133v119h265v-277c-75 -64 -159 -115 -306 -115c-198 0 -363 142 -363 363c0 201 150 363 363 363zM395 741
c-96 0 -151 60 -151 143h99c0 -31 11 -62 52 -62c42 0 53 31 53 62h99c0 -83 -54 -143 -152 -143z" />
    <glyph glyph-name="gbreve" unicode="&#x11f;" horiz-adv-x="615" 
d="M92 -144l42 106c17 -9 77 -36 149 -36c75 0 144 23 144 104v24c-11 -15 -62 -67 -153 -67c-151 0 -250 113 -250 274s106 275 255 275c88 0 141 -48 156 -68v55h130v-457c0 -195 -127 -258 -281 -258c-72 0 -145 22 -192 48zM431 262c0 89 -54 152 -135 152
c-78 0 -133 -60 -133 -152s56 -153 134 -153c80 0 134 60 134 153zM306 581c-96 0 -151 60 -151 143h99c0 -31 11 -62 52 -62c42 0 53 31 53 62h99c0 -83 -54 -143 -152 -143z" />
    <glyph glyph-name="Zacute" unicode="&#x179;" horiz-adv-x="603" 
d="M32 0v92l344 483h-334v125h522v-92l-346 -483h349v-125h-535zM225 738l67 144h145l-97 -144h-115z" />
    <glyph glyph-name="ycircumflex" unicode="&#x177;" horiz-adv-x="540" 
d="M266 -179h-132l73 192l-201 510h148l117 -341l118 341h144zM322 584l-49 71l-49 -71h-117l95 140h142l95 -140h-117z" />
    <glyph glyph-name="Ycircumflex" unicode="&#x176;" horiz-adv-x="584" 
d="M222 0v320l-215 380h159l126 -251l126 251h159l-215 -380v-320h-140zM342 739l-49 71l-49 -71h-117l95 140h142l95 -140h-117z" />
    <glyph glyph-name="wcircumflex" unicode="&#x175;" horiz-adv-x="828" 
d="M510 0l-96 335l-97 -335h-154l-156 523h150l92 -371l100 371h130l99 -371l93 371h150l-157 -523h-154zM463 584l-49 71l-49 -71h-117l95 140h142l95 -140h-117z" />
    <glyph glyph-name="Gdotaccent" unicode="&#x120;" horiz-adv-x="747" 
d="M393 713c147 0 240 -73 276 -116l-89 -92c-21 23 -81 77 -181 77c-137 0 -222 -102 -222 -232c0 -143 96 -231 222 -231c98 0 153 40 168 55v86h-133v119h265v-277c-75 -64 -159 -115 -306 -115c-198 0 -363 142 -363 363c0 201 150 363 363 363zM319 809
c0 45 35 79 80 79c46 0 81 -34 81 -79s-35 -79 -81 -79c-45 0 -80 34 -80 79z" />
    <glyph glyph-name="gdotaccent" unicode="&#x121;" horiz-adv-x="615" 
d="M92 -144l42 106c17 -9 77 -36 149 -36c75 0 144 23 144 104v24c-11 -15 -62 -67 -153 -67c-151 0 -250 113 -250 274s106 275 255 275c88 0 141 -48 156 -68v55h130v-457c0 -195 -127 -258 -281 -258c-72 0 -145 22 -192 48zM431 262c0 89 -54 152 -135 152
c-78 0 -133 -60 -133 -152s56 -153 134 -153c80 0 134 60 134 153zM227 649c0 45 35 79 80 79c46 0 81 -34 81 -79s-35 -79 -81 -79c-45 0 -80 34 -80 79z" />
    <glyph glyph-name="Gcommaaccent" unicode="&#x122;" horiz-adv-x="747" 
d="M393 713c147 0 240 -73 276 -116l-89 -92c-21 23 -81 77 -181 77c-137 0 -222 -102 -222 -232c0 -143 96 -231 222 -231c98 0 153 40 168 55v86h-133v119h265v-277c-75 -64 -159 -115 -306 -115c-198 0 -363 142 -363 363c0 201 150 363 363 363zM339 -240
c18 14 42 38 49 65c-39 8 -59 41 -59 72c0 41 34 74 75 74c45 0 78 -34 78 -86c0 -72 -40 -138 -95 -176z" />
    <glyph glyph-name="Hcircumflex" unicode="&#x124;" horiz-adv-x="707" 
d="M67 0v700h141v-284h291v284h141v-700h-141v289h-291v-289h-141zM407 739l-49 71l-49 -71h-117l95 140h142l95 -140h-117z" />
    <glyph glyph-name="Wcircumflex" unicode="&#x174;" horiz-adv-x="977" 
d="M620 0l-132 483l-132 -483h-159l-188 700h154l121 -524l139 524h130l139 -524l122 524h153l-187 -700h-160zM538 739l-49 71l-49 -71h-117l95 140h142l95 -140h-117z" />
    <glyph glyph-name="uhungarumlaut" unicode="&#x171;" horiz-adv-x="556" 
d="M231 -13c-149 0 -181 123 -181 234v302h138v-318c0 -58 40 -94 87 -94c57 0 93 42 93 98v314h138v-523h-135v61c-22 -36 -72 -74 -140 -74zM298 581l68 144h132l-96 -144h-104zM124 581l67 144h133l-97 -144h-103z" />
    <glyph glyph-name="Uhungarumlaut" unicode="&#x170;" horiz-adv-x="695" 
d="M346 -13c-181 0 -282 111 -282 276v437h141v-437c0 -89 51 -145 141 -145s141 56 141 145v437h141v-437c0 -165 -101 -276 -282 -276zM380 738l68 144h132l-96 -144h-104zM206 738l67 144h133l-97 -144h-103z" />
    <glyph glyph-name="Tcaron" unicode="&#x164;" horiz-adv-x="511" 
d="M185 0v573h-164v127h468v-127h-163v-573h-141zM255 808l49 71h117l-95 -140h-142l-95 140h117z" />
    <glyph glyph-name="uring" unicode="&#x16f;" horiz-adv-x="556" 
d="M231 -13c-149 0 -181 123 -181 234v302h138v-318c0 -58 40 -94 87 -94c57 0 93 42 93 98v314h138v-523h-135v61c-22 -36 -72 -74 -140 -74zM281 564c-60 0 -106 41 -106 99c0 59 46 99 106 99c62 0 108 -40 108 -98c0 -59 -46 -100 -108 -100zM282 624c23 0 38 16 38 40
c0 22 -15 38 -38 38s-38 -16 -38 -39s15 -39 38 -39z" />
    <glyph glyph-name="tcaron" unicode="&#x165;" horiz-adv-x="335" 
d="M248 549l7 174h130l-46 -174h-91zM67 523v110h136v-110h98v-112h-98v-202c0 -78 24 -94 77 -94c9 0 14 0 25 1v-118s-21 -5 -59 -5c-125 0 -180 70 -180 212v206h-55v112h56z" />
    <glyph glyph-name="Uring" unicode="&#x16e;" horiz-adv-x="692" 
d="M346 -13c-181 0 -282 111 -282 276v437h141v-437c0 -89 51 -145 141 -145s141 56 141 145v437h141v-437c0 -165 -101 -276 -282 -276zM348 731c-60 0 -106 41 -106 99c0 59 46 99 106 99c62 0 108 -40 108 -98c0 -59 -46 -100 -108 -100zM349 791c23 0 38 16 38 40
c0 22 -15 38 -38 38s-38 -16 -38 -39s15 -39 38 -39z" />
    <glyph glyph-name="ubreve" unicode="&#x16d;" horiz-adv-x="556" 
d="M231 -13c-149 0 -181 123 -181 234v302h138v-318c0 -58 40 -94 87 -94c57 0 93 42 93 98v314h138v-523h-135v61c-22 -36 -72 -74 -140 -74zM280 581c-96 0 -151 60 -151 143h99c0 -31 11 -62 52 -62c42 0 53 31 53 62h99c0 -83 -54 -143 -152 -143z" />
    <glyph glyph-name="Ubreve" unicode="&#x16c;" horiz-adv-x="692" 
d="M346 -13c-181 0 -282 111 -282 276v437h141v-437c0 -89 51 -145 141 -145s141 56 141 145v437h141v-437c0 -165 -101 -276 -282 -276zM353 741c-96 0 -151 60 -151 143h99c0 -31 11 -62 52 -62c42 0 53 31 53 62h99c0 -83 -54 -143 -152 -143z" />
    <glyph glyph-name="umacron" unicode="&#x16b;" horiz-adv-x="556" 
d="M231 -13c-149 0 -181 123 -181 234v302h138v-318c0 -58 40 -94 87 -94c57 0 93 42 93 98v314h138v-523h-135v61c-22 -36 -72 -74 -140 -74zM148 603v101h268v-101h-268z" />
    <glyph glyph-name="Umacron" unicode="&#x16a;" horiz-adv-x="692" 
d="M346 -13c-181 0 -282 111 -282 276v437h141v-437c0 -89 51 -145 141 -145s141 56 141 145v437h141v-437c0 -165 -101 -276 -282 -276zM214 751v101h268v-101h-268z" />
    <glyph glyph-name="utilde" unicode="&#x169;" horiz-adv-x="556" 
d="M231 -13c-149 0 -181 123 -181 234v302h138v-318c0 -58 40 -94 87 -94c57 0 93 42 93 98v314h138v-523h-135v61c-22 -36 -72 -74 -140 -74zM348 587c-53 0 -91 37 -125 37c-20 0 -32 -14 -32 -38h-87c0 80 44 134 110 134c55 0 91 -37 123 -37c20 0 32 15 32 38h87
c0 -82 -43 -134 -108 -134z" />
    <glyph glyph-name="Utilde" unicode="&#x168;" horiz-adv-x="692" 
d="M346 -13c-181 0 -282 111 -282 276v437h141v-437c0 -89 51 -145 141 -145s141 56 141 145v437h141v-437c0 -165 -101 -276 -282 -276zM423 744c-53 0 -91 37 -125 37c-20 0 -32 -14 -32 -38h-87c0 80 44 134 110 134c55 0 91 -37 123 -37c20 0 32 15 32 38h87
c0 -82 -43 -134 -108 -134z" />
    <glyph glyph-name="Tbar" unicode="&#x166;" horiz-adv-x="511" 
d="M71 310v103h116v160h-164v127h468v-127h-163v-160h115v-103h-115v-310h-141v310h-116z" />
    <glyph glyph-name="scaron" unicode="&#x161;" horiz-adv-x="435" 
d="M214 -13c-103 0 -167 52 -195 97l81 72c26 -30 61 -57 120 -57c39 0 64 17 64 47c0 80 -247 49 -247 235c0 97 83 155 190 155c99 0 154 -52 179 -93l-91 -68c-16 20 -45 50 -94 50c-32 0 -54 -16 -54 -42c0 -83 248 -43 248 -230c0 -102 -88 -166 -201 -166zM225 653
l49 71h117l-95 -140h-142l-95 140h117z" />
    <glyph glyph-name="Scaron" unicode="&#x160;" horiz-adv-x="521" 
d="M263 713c141 0 199 -102 216 -153l-117 -53c-15 33 -41 76 -102 76c-48 0 -76 -29 -76 -67c0 -116 304 -99 304 -316c0 -123 -88 -213 -234 -213c-150 0 -212 105 -232 162l119 58c19 -46 58 -89 121 -89c52 0 83 27 83 72c0 120 -302 100 -302 324c0 118 86 199 220 199
zM259 808l49 71h117l-95 -140h-142l-95 140h117z" />
    <glyph glyph-name="Itilde" unicode="&#x128;" horiz-adv-x="275" 
d="M67 0v700h141v-700h-141zM207 744c-53 0 -91 37 -125 37c-20 0 -32 -14 -32 -38h-87c0 80 44 134 110 134c55 0 91 -37 123 -37c20 0 32 15 32 38h87c0 -82 -43 -134 -108 -134z" />
    <glyph glyph-name="Imacron" unicode="&#x12a;" horiz-adv-x="275" 
d="M67 0v700h141v-700h-141zM4 751v101h268v-101h-268z" />
    <glyph glyph-name="Kcommaaccent" unicode="&#x136;" horiz-adv-x="615" 
d="M67 0v700h141v-320l231 320h158l-252 -335l260 -365h-162l-235 340v-340h-141zM250 -240c18 14 42 38 49 65c-39 8 -59 41 -59 72c0 41 34 74 75 74c45 0 78 -34 78 -86c0 -72 -40 -138 -95 -176z" />
    <glyph glyph-name="kgreenlandic" unicode="&#x138;" horiz-adv-x="532" 
d="M54 0v523h138v-225l168 225h155l-184 -242l198 -281h-162l-175 265v-265h-138z" />
    <glyph glyph-name="kcommaaccent" unicode="&#x137;" horiz-adv-x="532" 
d="M54 0v723h138v-420l168 220h155l-184 -237l198 -286h-162l-175 270v-270h-138zM204 -240c18 14 42 38 49 65c-39 8 -59 41 -59 72c0 41 34 74 75 74c45 0 78 -34 78 -86c0 -72 -40 -138 -95 -176z" />
    <glyph glyph-name="Ibreve" unicode="&#x12c;" horiz-adv-x="275" 
d="M67 0v700h141v-700h-141zM140 741c-96 0 -151 60 -151 143h99c0 -31 11 -62 52 -62c42 0 53 31 53 62h99c0 -83 -54 -143 -152 -143z" />
    <glyph glyph-name="dotlessj" unicode="&#x237;" 
d="M54 -1v524h138v-530c0 -138 -87 -184 -200 -184c-16 0 -34 2 -34 2v117s14 -2 24 -2c50 0 72 26 72 73z" />
    <glyph glyph-name="jcircumflex" unicode="&#x135;" 
d="M54 -1v524h138v-530c0 -138 -87 -184 -200 -184c-16 0 -34 2 -34 2v117s14 -2 24 -2c50 0 72 26 72 73zM174 584l-49 71l-49 -71h-117l95 140h142l95 -140h-117z" />
    <glyph glyph-name="Jcircumflex" unicode="&#x134;" horiz-adv-x="374" 
d="M20 4l16 125c8 -1 32 -6 58 -6c48 0 71 29 71 76v501h141v-526c0 -130 -86 -180 -194 -180c-38 0 -64 4 -92 10zM274 739l-49 71l-49 -71h-117l95 140h142l95 -140h-117z" />
    <glyph glyph-name="ij" unicode="&#x133;" horiz-adv-x="494" 
d="M54 0v523h138v-523h-138zM42 649c0 45 35 79 80 79c46 0 81 -34 81 -79s-35 -79 -81 -79c-45 0 -80 34 -80 79zM301 -1v524h138v-530c0 -138 -87 -184 -200 -184c-16 0 -34 2 -34 2v117s14 -2 24 -2c50 0 72 26 72 73zM289 649c0 45 35 79 80 79c46 0 81 -34 81 -79
s-35 -79 -81 -79c-45 0 -80 34 -80 79z" />
    <glyph glyph-name="IJ" unicode="&#x132;" horiz-adv-x="649" 
d="M67 0v700h141v-700h-141zM296 4l16 125c8 -1 32 -6 58 -6c48 0 71 29 71 76v501h141v-526c0 -130 -86 -180 -194 -180c-38 0 -64 4 -92 10z" />
    <glyph glyph-name="Idotaccent" unicode="&#x130;" horiz-adv-x="275" 
d="M67 0v700h141v-700h-141zM60 809c0 45 35 79 80 79c46 0 81 -34 81 -79s-35 -79 -81 -79c-45 0 -80 34 -80 79z" />
    <glyph glyph-name="Rcommaaccent" unicode="&#x156;" horiz-adv-x="585" 
d="M67 0v700h211c153 0 237 -93 237 -208c0 -85 -42 -150 -106 -185l166 -307h-156l-136 274h-75v-274h-141zM208 393h66c51 0 96 32 96 94c0 56 -39 91 -103 91h-59v-185zM227 -240c18 14 42 38 49 65c-39 8 -59 41 -59 72c0 41 34 74 75 74c45 0 78 -34 78 -86
c0 -72 -40 -138 -95 -176z" />
    <glyph glyph-name="rcommaaccent" unicode="&#x157;" horiz-adv-x="360" 
d="M333 536v-140c-103 0 -141 -64 -141 -168v-228h-138v523h135v-76c23 52 75 89 144 89zM82 -240c18 14 42 38 49 65c-39 8 -59 41 -59 72c0 41 34 74 75 74c45 0 78 -34 78 -86c0 -72 -40 -138 -95 -176z" />
    <glyph glyph-name="scircumflex" unicode="&#x15d;" horiz-adv-x="435" 
d="M214 -13c-103 0 -167 52 -195 97l81 72c26 -30 61 -57 120 -57c39 0 64 17 64 47c0 80 -247 49 -247 235c0 97 83 155 190 155c99 0 154 -52 179 -93l-91 -68c-16 20 -45 50 -94 50c-32 0 -54 -16 -54 -42c0 -83 248 -43 248 -230c0 -102 -88 -166 -201 -166zM278 584
l-49 71l-49 -71h-117l95 140h142l95 -140h-117z" />
    <glyph glyph-name="Scircumflex" unicode="&#x15c;" horiz-adv-x="521" 
d="M263 713c141 0 199 -102 216 -153l-117 -53c-15 33 -41 76 -102 76c-48 0 -76 -29 -76 -67c0 -116 304 -99 304 -316c0 -123 -88 -213 -234 -213c-150 0 -212 105 -232 162l119 58c19 -46 58 -89 121 -89c52 0 83 27 83 72c0 120 -302 100 -302 324c0 118 86 199 220 199
zM313 739l-49 71l-49 -71h-117l95 140h142l95 -140h-117z" />
    <glyph glyph-name="sacute" unicode="&#x15b;" horiz-adv-x="435" 
d="M214 -13c-103 0 -167 52 -195 97l81 72c26 -30 61 -57 120 -57c39 0 64 17 64 47c0 80 -247 49 -247 235c0 97 83 155 190 155c99 0 154 -52 179 -93l-91 -68c-16 20 -45 50 -94 50c-32 0 -54 -16 -54 -42c0 -83 248 -43 248 -230c0 -102 -88 -166 -201 -166zM148 581
l67 144h145l-97 -144h-115z" />
    <glyph glyph-name="Sacute" unicode="&#x15a;" horiz-adv-x="521" 
d="M263 713c141 0 199 -102 216 -153l-117 -53c-15 33 -41 76 -102 76c-48 0 -76 -29 -76 -67c0 -116 304 -99 304 -316c0 -123 -88 -213 -234 -213c-150 0 -212 105 -232 162l119 58c19 -46 58 -89 121 -89c52 0 83 27 83 72c0 120 -302 100 -302 324c0 118 86 199 220 199
zM189 738l67 144h145l-97 -144h-115z" />
    <glyph glyph-name="rcaron" unicode="&#x159;" horiz-adv-x="360" 
d="M333 536v-140c-103 0 -141 -64 -141 -168v-228h-138v523h135v-76c23 52 75 89 144 89zM181 653l49 71h117l-95 -140h-142l-95 140h117z" />
    <glyph glyph-name="Rcaron" unicode="&#x158;" horiz-adv-x="585" 
d="M67 0v700h211c153 0 237 -93 237 -208c0 -85 -42 -150 -106 -185l166 -307h-156l-136 274h-75v-274h-141zM208 393h66c51 0 96 32 96 94c0 56 -39 91 -103 91h-59v-185zM268 808l49 71h117l-95 -140h-142l-95 140h117z" />
    <glyph glyph-name="racute" unicode="&#x155;" horiz-adv-x="360" 
d="M333 536v-140c-103 0 -141 -64 -141 -168v-228h-138v523h135v-76c23 52 75 89 144 89zM114 581l67 144h145l-97 -144h-115z" />
    <glyph glyph-name="Racute" unicode="&#x154;" horiz-adv-x="585" 
d="M67 0v700h211c153 0 237 -93 237 -208c0 -85 -42 -150 -106 -185l166 -307h-156l-136 274h-75v-274h-141zM208 393h66c51 0 96 32 96 94c0 56 -39 91 -103 91h-59v-185zM198 738l67 144h145l-97 -144h-115z" />
    <glyph glyph-name="ohungarumlaut" unicode="&#x151;" horiz-adv-x="613" 
d="M25 260c0 159 122 276 281 276c160 0 282 -118 282 -276s-118 -273 -282 -273c-163 0 -281 115 -281 273zM163 260c0 -89 61 -151 143 -151c83 0 144 62 144 151s-61 154 -144 154s-143 -64 -143 -154zM342 581l68 144h132l-96 -144h-104zM168 581l67 144h133l-97 -144
h-103z" />
    <glyph glyph-name="Ohungarumlaut" unicode="&#x150;" horiz-adv-x="788" 
d="M394 -13c-215 0 -364 157 -364 363c0 204 149 363 364 363s364 -159 364 -363c0 -206 -149 -363 -364 -363zM394 581c-126 0 -217 -99 -217 -231c0 -134 91 -231 217 -231s217 97 217 231c0 132 -91 231 -217 231zM415 738l68 144h132l-96 -144h-104zM241 738l67 144h133
l-97 -144h-103z" />
    <glyph glyph-name="Obreve" unicode="&#x14e;" horiz-adv-x="788" 
d="M394 -13c-215 0 -364 157 -364 363c0 204 149 363 364 363s364 -159 364 -363c0 -206 -149 -363 -364 -363zM394 581c-126 0 -217 -99 -217 -231c0 -134 91 -231 217 -231s217 97 217 231c0 132 -91 231 -217 231zM394 741c-96 0 -151 60 -151 143h99
c0 -31 11 -62 52 -62c42 0 53 31 53 62h99c0 -83 -54 -143 -152 -143z" />
    <glyph glyph-name="omacron" unicode="&#x14d;" horiz-adv-x="613" 
d="M25 260c0 159 122 276 281 276c160 0 282 -118 282 -276s-118 -273 -282 -273c-163 0 -281 115 -281 273zM163 260c0 -89 61 -151 143 -151c83 0 144 62 144 151s-61 154 -144 154s-143 -64 -143 -154zM173 603v101h268v-101h-268z" />
    <glyph glyph-name="Lacute" unicode="&#x139;" horiz-adv-x="455" 
d="M67 0v700h141v-573h228v-127h-369zM80 738l67 144h145l-97 -144h-115z" />
    <glyph glyph-name="lacute" unicode="&#x13a;" 
d="M54 0v723h138v-723h-138zM59 750l67 144h145l-97 -144h-115z" />
    <glyph glyph-name="lcommaaccent" unicode="&#x13c;" 
d="M54 0v723h138v-723h-138zM56 -240c18 14 42 38 49 65c-39 8 -59 41 -59 72c0 41 34 74 75 74c45 0 78 -34 78 -86c0 -72 -40 -138 -95 -176z" />
    <glyph glyph-name="Lcommaaccent" unicode="&#x13b;" horiz-adv-x="455" 
d="M67 0v700h141v-573h228v-127h-369zM185 -240c18 14 42 38 49 65c-39 8 -59 41 -59 72c0 41 34 74 75 74c45 0 78 -34 78 -86c0 -72 -40 -138 -95 -176z" />
    <glyph glyph-name="Lcaron" unicode="&#x13d;" horiz-adv-x="455" 
d="M275 526l7 174h130l-46 -174h-91zM67 0v700h141v-573h228v-127h-369z" />
    <glyph glyph-name="lcaron" unicode="&#x13e;" 
d="M224 549l7 174h130l-46 -174h-91zM54 0v723h138v-723h-138z" />
    <glyph glyph-name="ldot" unicode="&#x140;" horiz-adv-x="403" 
d="M54 0v723h138v-723h-138zM314 269c-48 0 -85 38 -85 84c0 47 37 86 85 86s85 -39 85 -86c0 -46 -37 -84 -85 -84z" />
    <glyph glyph-name="Ldot" unicode="&#x13f;" horiz-adv-x="455" 
d="M67 0v700h141v-573h228v-127h-369zM359 283c-48 0 -85 38 -85 84c0 47 37 86 85 86s85 -39 85 -86c0 -46 -37 -84 -85 -84z" />
    <glyph glyph-name="Lslash" unicode="&#x141;" horiz-adv-x="455" 
d="M11 191v132l56 32v345h141v-267l108 62v-134l-108 -60v-175h228v-126h-369v224z" />
    <glyph glyph-name="lslash" unicode="&#x142;" horiz-adv-x="294" 
d="M21 238v132l53 32v321h138v-240l61 37v-135l-61 -37v-348h-138v270z" />
    <glyph glyph-name="Omacron" unicode="&#x14c;" horiz-adv-x="788" 
d="M394 -13c-215 0 -364 157 -364 363c0 204 149 363 364 363s364 -159 364 -363c0 -206 -149 -363 -364 -363zM394 581c-126 0 -217 -99 -217 -231c0 -134 91 -231 217 -231s217 97 217 231c0 132 -91 231 -217 231zM260 751v101h268v-101h-268z" />
    <glyph glyph-name="Nacute" unicode="&#x143;" horiz-adv-x="713" 
d="M507 0l-302 474v-474h-139v700h143l299 -478v478h139v-700h-140zM296 738l67 144h145l-97 -144h-115z" />
    <glyph glyph-name="nacute" unicode="&#x144;" horiz-adv-x="560" 
d="M329 536c149 0 181 -123 181 -234v-302h-138v318c0 58 -40 94 -87 94c-57 0 -93 -42 -93 -98v-314h-138v523h135v-61c22 36 72 74 140 74zM216 581l67 144h145l-97 -144h-115z" />
    <glyph glyph-name="Ncommaaccent" unicode="&#x145;" horiz-adv-x="713" 
d="M507 0l-302 474v-474h-139v700h143l299 -478v478h139v-700h-140zM289 -240c18 14 42 38 49 65c-39 8 -59 41 -59 72c0 41 34 74 75 74c45 0 78 -34 78 -86c0 -72 -40 -138 -95 -176z" />
    <glyph glyph-name="ncommaaccent" unicode="&#x146;" horiz-adv-x="560" 
d="M329 536c149 0 181 -123 181 -234v-302h-138v318c0 58 -40 94 -87 94c-57 0 -93 -42 -93 -98v-314h-138v523h135v-61c22 36 72 74 140 74zM213 -240c18 14 42 38 49 65c-39 8 -59 41 -59 72c0 41 34 74 75 74c45 0 78 -34 78 -86c0 -72 -40 -138 -95 -176z" />
    <glyph glyph-name="Ncaron" unicode="&#x147;" horiz-adv-x="713" 
d="M507 0l-302 474v-474h-139v700h143l299 -478v478h139v-700h-140zM362 808l49 71h117l-95 -140h-142l-95 140h117z" />
    <glyph glyph-name="ncaron" unicode="&#x148;" horiz-adv-x="560" 
d="M329 536c149 0 181 -123 181 -234v-302h-138v318c0 58 -40 94 -87 94c-57 0 -93 -42 -93 -98v-314h-138v523h135v-61c22 36 72 74 140 74zM283 653l49 71h117l-95 -140h-142l-95 140h117z" />
    <glyph glyph-name="napostrophe" unicode="&#x149;" horiz-adv-x="636" 
d="M404 536c149 0 181 -123 181 -234v-302h-138v318c0 58 -40 94 -87 94c-57 0 -93 -42 -93 -98v-314h-138v523h135v-61c22 36 72 74 140 74zM-23 517c18 14 42 38 49 65c-39 8 -59 41 -59 72c0 41 34 74 75 74c45 0 78 -34 78 -86c0 -72 -40 -138 -95 -176z" />
    <glyph glyph-name="gcommaaccent" unicode="&#x123;" horiz-adv-x="615" 
d="M92 -144l42 106c17 -9 77 -36 149 -36c75 0 144 23 144 104v24c-11 -15 -62 -67 -153 -67c-151 0 -250 113 -250 274s106 275 255 275c88 0 141 -48 156 -68v55h130v-457c0 -195 -127 -258 -281 -258c-72 0 -145 22 -192 48zM431 262c0 89 -54 152 -135 152
c-78 0 -133 -60 -133 -152s56 -153 134 -153c80 0 134 60 134 153zM369 782c-18 -14 -42 -38 -49 -65c39 -8 59 -41 59 -72c0 -41 -34 -74 -75 -74c-45 0 -78 34 -78 86c0 72 40 138 95 176z" />
    <glyph glyph-name="iacute" unicode="&#xed;" 
d="M48 581l67 144h145l-97 -144h-115zM54 0v523h138v-523h-138z" />
    <glyph glyph-name="idieresis" unicode="&#xef;" 
d="M31 585c-40 0 -68 30 -68 68c0 37 28 68 68 68c39 0 68 -31 68 -68c0 -38 -29 -68 -68 -68zM223 585c-41 0 -68 30 -68 68c0 37 27 68 68 68c39 0 68 -31 68 -68c0 -38 -29 -68 -68 -68zM54 0v523h138v-523h-138z" />
    <glyph glyph-name="icircumflex" unicode="&#xee;" 
d="M54 0v523h138v-523h-138zM176 584l-49 71l-49 -71h-117l95 140h142l95 -140h-117z" />
    <glyph glyph-name="igrave" unicode="&#xec;" 
d="M131 725l67 -144h-115l-97 144h145zM54 0v523h138v-523h-138z" />
    <glyph glyph-name="itilde" unicode="&#x129;" horiz-adv-x="246" 
d="M193 587c-53 0 -91 37 -125 37c-20 0 -32 -14 -32 -38h-87c0 80 44 134 110 134c55 0 91 -37 123 -37c20 0 32 15 32 38h87c0 -82 -43 -134 -108 -134zM54 0v523h138v-523h-138z" />
    <glyph glyph-name="ibreve" unicode="&#x12d;" horiz-adv-x="246" 
d="M126 581c-96 0 -151 60 -151 143h99c0 -31 11 -62 52 -62c42 0 53 31 53 62h99c0 -83 -54 -143 -152 -143zM54 0v523h138v-523h-138z" />
    <glyph glyph-name="imacron" unicode="&#x12b;" 
d="M-10 603v101h268v-101h-268zM54 0v523h138v-523h-138z" />
    <glyph glyph-name="OE" unicode="&#x152;" horiz-adv-x="1027" 
d="M394 -13c-215 0 -364 157 -364 363c0 204 149 363 364 363c36 0 70 -5 102 -13h476v-127h-288c35 -43 58 -97 68 -156h189v-125h-188c-8 -64 -33 -120 -69 -166h297v-126h-485c-32 -8 -66 -13 -102 -13zM394 581c-126 0 -217 -99 -217 -231c0 -134 91 -231 217 -231
s217 97 217 231c0 132 -91 231 -217 231z" />
    <glyph glyph-name="obreve" unicode="&#x14f;" horiz-adv-x="613" 
d="M25 260c0 159 122 276 281 276c160 0 282 -118 282 -276s-118 -273 -282 -273c-163 0 -281 115 -281 273zM163 260c0 -89 61 -151 143 -151c83 0 144 62 144 151s-61 154 -144 154s-143 -64 -143 -154zM303 581c-96 0 -151 60 -151 143h99c0 -31 11 -62 52 -62
c42 0 53 31 53 62h99c0 -83 -54 -143 -152 -143z" />
    <glyph glyph-name="ccedilla" unicode="&#xe7;" horiz-adv-x="490" 
d="M253 -233c-20 0 -48 6 -58 9l16 71c8 -2 20 -5 33 -5c23 0 43 10 43 33c0 22 -25 31 -50 31c-8 0 -17 -2 -17 -2l13 91c-125 27 -208 130 -208 265c0 159 119 276 278 276c77 0 131 -30 165 -56l-39 -116c-23 21 -63 50 -122 50c-89 0 -144 -69 -144 -153
c0 -89 62 -152 149 -152c53 0 95 28 118 47l37 -113c-30 -24 -87 -56 -163 -56l-4 -26c49 -10 76 -48 76 -92c0 -65 -55 -102 -123 -102z" />
    <glyph glyph-name="dollar" unicode="$" horiz-adv-x="521" 
d="M222 -85v74c-127 13 -182 107 -200 160l119 58c19 -46 58 -89 121 -89c52 0 83 27 83 72c0 120 -302 100 -302 324c0 105 68 181 179 196v56h86v-57c108 -19 156 -104 171 -149l-117 -53c-15 33 -41 76 -102 76c-48 0 -76 -29 -76 -67c0 -116 304 -99 304 -316
c0 -107 -67 -189 -180 -208v-77h-86z" />
    <glyph glyph-name="Ccedilla" unicode="&#xc7;" horiz-adv-x="638" 
d="M330 -233c-20 0 -48 6 -58 9l16 71c8 -2 20 -5 33 -5c23 0 43 10 43 33c0 22 -25 31 -50 31c-8 0 -17 -2 -17 -2l13 91c-171 35 -280 177 -280 355c0 206 154 363 365 363c93 0 163 -31 208 -64l-40 -124c-34 24 -97 56 -168 56c-127 0 -218 -99 -218 -231
c0 -134 91 -231 218 -231c76 0 141 34 174 57l40 -123c-42 -31 -112 -66 -214 -66c-5 0 -14 1 -14 1l-4 -27c49 -10 76 -48 76 -92c0 -65 -55 -102 -123 -102z" />
    <glyph glyph-name="cent" unicode="&#xa2;" horiz-adv-x="490" 
d="M263 0v65c-141 18 -238 125 -238 271c0 145 99 255 238 273v91h87v-92c52 -9 91 -32 118 -52l-39 -116c-23 21 -63 50 -122 50c-89 0 -144 -69 -144 -153c0 -89 62 -152 149 -152c53 0 95 28 118 47l37 -113c-24 -19 -64 -43 -117 -52v-67h-87z" />
    <glyph glyph-name="Aogonek" unicode="&#x104;" horiz-adv-x="660" 
d="M483 -108c0 56 47 94 77 108h-50l-61 180h-238l-61 -180h-142l248 700h148l248 -700c-12 -5 -55 -26 -55 -64c0 -27 28 -40 52 -40v-98c-7 -2 -22 -4 -35 -4c-62 0 -131 19 -131 98zM412 297l-82 252l-81 -252h163z" />
    <glyph glyph-name="ae" unicode="&#xe6;" horiz-adv-x="870" 
d="M162 166c0 -43 39 -72 91 -72s89 28 89 72c0 46 -37 73 -90 73s-90 -30 -90 -73zM482 317h224c-3 64 -48 106 -112 106s-106 -46 -112 -106zM478 227c3 -70 58 -120 136 -120c71 0 112 42 127 64l91 -69c-20 -37 -90 -115 -220 -115c-89 0 -162 31 -208 87
c-31 -48 -85 -87 -184 -87c-106 0 -196 65 -196 175c0 103 81 173 203 173c53 0 94 -16 113 -29v34c0 46 -34 77 -95 77c-52 0 -100 -17 -139 -37c-18 31 -35 63 -52 94c49 32 119 62 206 62c83 0 136 -26 167 -66c42 42 100 66 165 66c163 0 255 -108 255 -279
c0 -10 0 -20 -1 -30h-368z" />
    <glyph glyph-name="Oslash" unicode="&#xd8;" horiz-adv-x="788" 
d="M394 -13c-72 0 -137 17 -191 48l-47 -59l-75 60l47 59c-62 64 -98 154 -98 255c0 204 149 363 364 363c70 0 133 -17 187 -47l46 58l76 -60l-46 -57c64 -65 101 -156 101 -257c0 -206 -149 -363 -364 -363zM611 350c0 55 -16 104 -44 143l-277 -349
c30 -16 65 -25 104 -25c126 0 217 97 217 231zM394 581c-126 0 -217 -99 -217 -231c0 -55 15 -103 41 -141l276 348c-29 15 -63 24 -100 24z" />
    <glyph glyph-name="yen" unicode="&#xa5;" horiz-adv-x="584" 
d="M225 0v158h-154v91h154v71h-154v91h102l-163 289h159l126 -251l126 251h159l-164 -289h96v-91h-147v-71h147v-91h-147v-158h-140z" />
    <glyph glyph-name="oslash" unicode="&#xf8;" horiz-adv-x="613" 
d="M25 260c0 159 122 276 281 276c51 0 98 -12 139 -34l38 48l66 -51l-37 -47c47 -49 76 -116 76 -192c0 -158 -118 -273 -282 -273c-51 0 -97 11 -137 31l-39 -50l-65 51l37 47c-48 49 -77 116 -77 194zM163 260c0 -34 8 -63 23 -87l180 228c-18 8 -38 13 -60 13
c-83 0 -143 -64 -143 -154zM450 260c0 32 -8 61 -22 85l-178 -226c17 -7 36 -10 56 -10c83 0 144 62 144 151z" />
    <glyph glyph-name="aogonek" unicode="&#x105;" horiz-adv-x="526" 
d="M309 -108c0 56 47 94 77 108h-30l-9 34c-27 -29 -67 -47 -127 -47c-106 0 -196 65 -196 175c0 103 81 173 203 173c53 0 94 -16 113 -29v34c0 46 -34 77 -95 77c-52 0 -100 -17 -139 -37l-52 94c47 32 126 62 206 62c168 0 218 -88 218 -205v-331c-12 -5 -55 -26 -55 -64
c0 -27 28 -40 52 -40v-98c-7 -2 -22 -4 -35 -4c-62 0 -131 19 -131 98zM162 166c0 -43 39 -72 91 -72s90 28 90 72c0 46 -38 73 -91 73s-90 -30 -90 -73z" />
    <glyph glyph-name="hyphen.caps" horiz-adv-x="369" 
d="M45 289v124h278v-124h-278z" />
    <glyph glyph-name="endash.caps" horiz-adv-x="648" 
d="M45 297v113h558v-113h-558z" />
    <glyph glyph-name="emdash.caps" horiz-adv-x="918" 
d="M45 297v113h827v-113h-827z" />
    <glyph glyph-name="guillemotleft.caps" horiz-adv-x="490" 
d="M150 170l-122 187l122 188h123l-122 -188l122 -187h-123zM338 170l-122 187l122 188h123l-122 -188l122 -187h-123z" />
    <glyph glyph-name="guillemotright.caps" horiz-adv-x="490" 
d="M461 357l-122 -187h-123l122 187l-122 188h123zM273 357l-122 -187h-123l122 187l-122 188h123z" />
    <glyph glyph-name="guilsinglleft.caps" horiz-adv-x="302" 
d="M150 170l-122 187l122 188h123l-122 -188l122 -187h-123z" />
    <glyph glyph-name="guilsinglright.caps" horiz-adv-x="302" 
d="M273 357l-122 -187h-123l122 187l-122 188h123z" />
    <glyph glyph-name="parenleft.caps" horiz-adv-x="332" 
d="M182 628v-558c0 -51 23 -85 86 -85v-119c-152 0 -223 74 -223 211v543c0 137 71 212 223 212v-119c-63 0 -86 -34 -86 -85z" />
    <glyph glyph-name="parenright.caps" horiz-adv-x="333" 
d="M150 70v558c0 51 -23 85 -86 85v119c152 0 223 -75 223 -212v-543c0 -137 -71 -211 -223 -211v119c63 0 86 34 86 85z" />
    <glyph glyph-name="bracketleft.caps" horiz-adv-x="332" 
d="M45 -134v966h223v-119h-86v-728h86v-119h-223z" />
    <glyph glyph-name="bracketright.caps" horiz-adv-x="334" 
d="M287 832v-966h-223v119h86v728h-86v119h223z" />
    <glyph glyph-name="braceleft.caps" horiz-adv-x="388" 
d="M158 349c19 -4 79 -38 79 -130v-149c0 -51 23 -85 87 -85v-119c-153 0 -223 75 -223 212v108c0 80 -37 99 -73 99v129c38 0 73 19 73 99v107c0 137 70 212 223 212v-119c-64 0 -87 -34 -87 -85v-148c0 -93 -60 -126 -79 -131z" />
    <glyph glyph-name="bar.caps" horiz-adv-x="282" 
d="M76 -205v1059h130v-1059h-130z" />
    <glyph glyph-name="braceright.caps" horiz-adv-x="388" 
d="M230 349c-19 5 -79 38 -79 131v148c0 51 -23 85 -87 85v119c153 0 223 -75 223 -212v-107c0 -80 35 -99 73 -99v-129c-36 0 -73 -19 -73 -99v-108c0 -137 -70 -212 -223 -212v119c64 0 87 34 87 85v149c0 92 60 126 79 130z" />
    <glyph glyph-name="slash.caps" horiz-adv-x="452" 
d="M15 -81l301 858h121l-301 -858h-121z" />
    <glyph glyph-name="backslash.caps" horiz-adv-x="452" 
d="M136 777l301 -858h-121l-301 858h121z" />
    <glyph glyph-name="exclamdown.caps" horiz-adv-x="292" 
d="M73 0l11 501h124l11 -501h-146zM146 713c48 0 85 -38 85 -84c0 -47 -37 -86 -85 -86s-85 39 -85 86c0 46 37 84 85 84z" />
    <glyph glyph-name="questiondown.caps" horiz-adv-x="482" 
d="M330 501v-49c0 -135 -160 -166 -160 -263c0 -39 31 -75 84 -75c55 0 78 36 89 62l110 -49c-19 -55 -76 -140 -201 -140c-129 0 -223 80 -223 194c0 150 167 182 167 279v41h134zM263 713c48 0 85 -38 85 -84c0 -47 -37 -86 -85 -86s-85 39 -85 86c0 46 37 84 85 84z" />
    <glyph glyph-name="periodcentered.caps" horiz-adv-x="249" 
d="M124 270c-48 0 -85 38 -85 84c0 47 37 86 85 86s85 -39 85 -86c0 -46 -37 -84 -85 -84z" />
    <glyph glyph-name="bullet.caps" horiz-adv-x="406" 
d="M203 182c-99 0 -172 77 -172 172s73 172 172 172s172 -77 172 -172s-73 -172 -172 -172z" />
    <glyph glyph-name="zero.tab" horiz-adv-x="581" 
d="M532 350c0 -239 -66 -363 -242 -363c-175 0 -241 124 -241 363c0 238 66 363 241 363c176 0 242 -125 242 -363zM192 350c0 -149 13 -231 98 -231c86 0 99 82 99 231c0 148 -13 231 -99 231c-85 0 -98 -83 -98 -231z" />
    <glyph glyph-name="one.tab" horiz-adv-x="581" 
d="M77 0v123h178v438l-149 -65l-49 107l222 97h115v-577h130v-123h-447z" />
    <glyph glyph-name="two.tab" horiz-adv-x="581" 
d="M61 0v50c0 200 309 318 309 447c0 52 -34 86 -90 86c-57 0 -86 -38 -99 -82l-123 36c16 70 76 176 228 176c135 0 228 -82 228 -210c0 -188 -261 -278 -286 -380h294v-123h-461z" />
    <glyph glyph-name="three.tab" horiz-adv-x="581" 
d="M287 -13c-152 0 -214 98 -232 172l121 38c14 -44 48 -81 108 -81c58 0 98 38 98 96c0 55 -39 95 -115 95h-77v109l145 160h-253v124h414v-124l-147 -154c88 -9 176 -80 176 -204c0 -136 -101 -231 -238 -231z" />
    <glyph glyph-name="four.tab" horiz-adv-x="581" 
d="M24 163v101l287 436h164v-417h82v-120h-82v-163h-139v163h-312zM169 283h167v260z" />
    <glyph glyph-name="five.tab" horiz-adv-x="581" 
d="M275 338c-42 0 -68 -22 -83 -38l-117 20l15 380h395v-124h-270l-6 -143c31 17 64 24 100 24c118 0 219 -89 219 -219c0 -146 -99 -251 -238 -251c-150 0 -219 98 -238 172l122 38c13 -48 50 -81 109 -81c61 0 103 47 103 111c0 55 -35 111 -111 111z" />
    <glyph glyph-name="six.tab" horiz-adv-x="581" 
d="M297 119c61 0 95 41 95 111c0 63 -33 110 -98 110c-41 0 -76 -22 -101 -55c0 -87 9 -166 104 -166zM336 713c81 0 135 -28 164 -46l-55 -114c-20 13 -52 28 -100 28c-117 0 -142 -98 -145 -160c21 18 63 45 125 45c121 0 206 -84 206 -232c0 -147 -93 -247 -235 -247
c-192 0 -246 134 -246 318c0 217 65 408 286 408z" />
    <glyph glyph-name="seven.tab" horiz-adv-x="581" 
d="M56 700h468v-107l-235 -593h-152l238 576h-319v124z" />
    <glyph glyph-name="eight.tab" horiz-adv-x="581" 
d="M289 -13c-149 0 -245 85 -245 219c0 86 52 142 96 166c-34 22 -77 71 -77 142c0 115 89 199 227 199c137 0 227 -83 227 -199c0 -71 -43 -120 -78 -142c46 -25 97 -80 97 -166c0 -133 -99 -219 -247 -219zM290 302c-62 0 -102 -39 -102 -94c0 -52 36 -93 102 -93
c67 0 102 41 102 93c0 55 -40 94 -102 94zM290 586c-57 0 -87 -36 -87 -80c0 -48 35 -81 87 -81c51 0 87 33 87 81c0 44 -31 80 -87 80z" />
    <glyph glyph-name="nine.tab" horiz-adv-x="588" 
d="M287 581c-61 0 -95 -41 -95 -111c0 -63 33 -110 98 -110c41 0 76 22 101 55c0 87 -9 166 -104 166zM248 -13c-81 0 -135 28 -164 46l55 114c20 -13 52 -28 100 -28c117 0 142 98 145 160c-21 -18 -63 -45 -125 -45c-121 0 -206 84 -206 232c0 147 93 247 235 247
c192 0 246 -134 246 -318c0 -217 -65 -408 -286 -408z" />
    <glyph glyph-name="eogonek" unicode="&#x119;" horiz-adv-x="559" 
d="M256 -108c0 44 28 76 55 95h-10c-168 0 -275 116 -275 273c0 158 107 276 256 276c162 0 254 -108 254 -279c0 -10 0 -20 -1 -30h-368c3 -70 59 -120 136 -120c71 0 112 42 127 64l91 -69c-11 -19 -36 -50 -76 -76c-43 -28 -75 -53 -75 -88c0 -27 26 -42 52 -42v-98
c-7 -2 -22 -4 -35 -4c-62 0 -131 19 -131 98zM171 317h225c-3 64 -49 106 -112 106c-65 0 -107 -46 -113 -106z" />
    <glyph glyph-name="Eogonek" unicode="&#x118;" horiz-adv-x="481" 
d="M67 0v700h360v-127h-219v-156h188v-125h-188v-166h228v-126c-12 -5 -55 -26 -55 -64c0 -27 28 -40 52 -40v-98c-7 -2 -22 -4 -35 -4c-62 0 -131 19 -131 98c0 56 47 94 77 108h-277z" />
    <glyph glyph-name="numero" unicode="&#x2116;" horiz-adv-x="1148" 
d="M820 530c0 -45 33 -85 85 -85c50 0 85 40 85 85s-33 87 -85 87s-85 -42 -85 -87zM720 530c0 97 76 183 185 183s185 -86 185 -183s-76 -181 -185 -181s-185 84 -185 181zM737 189v111h335v-111h-335zM507 0l-302 476v-476h-139v700h143l299 -480v480h139v-700h-140z" />
    <glyph glyph-name="dcroat" unicode="&#x111;" horiz-adv-x="620" 
d="M566 723v-65h58v-89h-58v-569h-130v54c-14 -17 -66 -67 -155 -67c-150 0 -256 113 -256 274c0 162 98 275 248 275c90 0 142 -50 155 -68v101h-127v89h127v65h138zM432 260c0 98 -58 154 -134 154c-80 0 -134 -63 -134 -154c0 -93 56 -151 134 -151c84 0 134 68 134 151z
" />
    <glyph glyph-name="Uogonek" unicode="&#x172;" horiz-adv-x="692" 
d="M315 -108c0 44 29 77 56 96c0 0 -17 -1 -25 -1c-181 0 -282 111 -282 276v437h141v-437c0 -89 51 -145 141 -145s141 56 141 145v437h141v-437c0 -117 -51 -206 -144 -249c-21 -10 -55 -34 -55 -71c0 -29 28 -47 52 -47v-98c-7 -2 -22 -4 -35 -4c-62 0 -131 19 -131 98z
" />
    <glyph glyph-name="uogonek" unicode="&#x173;" horiz-adv-x="556" 
d="M337 -108c0 56 47 94 77 108h-43v61c-22 -36 -72 -74 -140 -74c-149 0 -181 123 -181 234v302h138v-318c0 -58 40 -94 87 -94c57 0 93 42 93 98v314h138v-523c-12 -5 -55 -26 -55 -64c0 -27 28 -40 52 -40v-98c-7 -2 -22 -4 -35 -4c-62 0 -131 19 -131 98z" />
    <glyph glyph-name="tbar" unicode="&#x167;" horiz-adv-x="333" 
d="M67 523v110h136v-110h98v-112h-98v-80h90v-91h-90v-31c0 -78 24 -94 77 -94c9 0 14 0 25 1v-118s-21 -5 -59 -5c-125 0 -180 70 -180 212v35h-55v91h55v80h-55v112h56z" />
    <glyph glyph-name="Iogonek" unicode="&#x12e;" horiz-adv-x="275" 
d="M67 0v700h141v-700c-12 -5 -55 -26 -55 -64c0 -27 28 -40 52 -40v-98c-7 -2 -22 -4 -35 -4c-62 0 -131 19 -131 98c0 56 47 94 77 108h-49z" />
    <glyph glyph-name="iogonek" unicode="&#x12f;" 
d="M54 0v523h138v-523c-12 -5 -55 -26 -55 -64c0 -27 28 -40 52 -40v-98c-7 -2 -22 -4 -35 -4c-62 0 -131 19 -131 98c0 56 47 94 77 108h-46zM42 649c0 45 35 79 80 79c46 0 81 -34 81 -79s-35 -79 -81 -79c-45 0 -80 34 -80 79z" />
    <glyph glyph-name="Scedilla" unicode="&#x15e;" horiz-adv-x="521" 
d="M240 -233c-20 0 -48 6 -58 9l16 71c8 -2 20 -5 33 -5c23 0 43 10 43 33c0 22 -25 31 -50 31c-8 0 -17 -2 -17 -2l12 85c-125 14 -179 107 -197 160l119 58c19 -46 58 -89 121 -89c52 0 83 27 83 72c0 120 -302 100 -302 324c0 118 86 199 220 199
c141 0 199 -102 216 -153l-117 -53c-15 33 -41 76 -102 76c-48 0 -76 -29 -76 -67c0 -116 304 -99 304 -316c0 -112 -73 -197 -197 -211l-4 -28c49 -10 76 -48 76 -92c0 -65 -55 -102 -123 -102z" />
    <glyph glyph-name="scedilla" unicode="&#x15f;" horiz-adv-x="435" 
d="M198 -233c-20 0 -48 6 -58 9l16 71c8 -2 20 -5 33 -5c23 0 43 10 43 33c0 22 -25 31 -50 31c-8 0 -17 -2 -17 -2l12 86c-82 10 -134 54 -158 94l81 72c26 -30 61 -57 120 -57c39 0 64 17 64 47c0 80 -247 49 -247 235c0 97 83 155 190 155c99 0 154 -52 179 -93l-91 -68
c-16 20 -45 50 -94 50c-32 0 -54 -16 -54 -42c0 -83 248 -43 248 -230c0 -91 -70 -152 -166 -163l-4 -29c49 -10 76 -48 76 -92c0 -65 -55 -102 -123 -102z" />
    <glyph glyph-name="eng" unicode="&#x14b;" horiz-adv-x="560" 
d="M372 -1v319c0 58 -40 94 -87 94c-57 0 -93 -42 -93 -98v-314h-138v523h135v-61c22 36 72 74 140 74c149 0 181 -123 181 -234v-309c0 -138 -87 -184 -200 -184c-16 0 -34 2 -34 2v117s14 -2 24 -2c50 0 72 26 72 73z" />
    <glyph glyph-name="Eng" unicode="&#x14a;" horiz-adv-x="713" 
d="M361 -181l16 125c8 -1 32 -6 58 -6c44 0 67 26 70 66l-300 472v-476h-139v700h143l299 -480v480h139v-711c0 -130 -86 -180 -194 -180c-38 0 -64 4 -92 10z" />
    <glyph glyph-name="hcircumflex" unicode="&#x125;" horiz-adv-x="562" 
d="M330 536c150 0 181 -123 181 -234v-302h-137v318c0 58 -40 94 -87 94c-58 0 -95 -42 -95 -98v-314h-138v723h138v-261c22 36 70 74 138 74zM346 739l-49 71l-49 -71h-117l95 140h142l95 -140h-117z" />
    <glyph glyph-name="Hbar" unicode="&#x126;" horiz-adv-x="707" 
d="M67 0v511h-57v96h57v93h141v-93h291v93h141v-93h58v-96h-58v-511h-141v289h-291v-289h-141zM208 416h291v95h-291v-95z" />
    <glyph glyph-name="hbar" unicode="&#x127;" horiz-adv-x="562" 
d="M330 536c150 0 181 -123 181 -234v-302h-137v318c0 58 -40 94 -87 94c-58 0 -95 -42 -95 -98v-314h-138v575h-51v88h51v60h138v-60h130v-88h-130v-113c22 36 70 74 138 74z" />
    <glyph glyph-name="Aringacute" unicode="&#x1fa;" horiz-adv-x="660" 
d="M449 180h-238l-61 -180h-142l239 676c-15 17 -24 40 -24 66c0 59 46 99 106 99c62 0 108 -40 108 -98c0 -27 -9 -50 -25 -67l240 -676h-142zM412 297l-82 252l-81 -252h163zM264 869l67 144h145l-97 -144h-115zM330 703c23 0 38 16 38 40c0 22 -15 38 -38 38
s-38 -16 -38 -39s15 -39 38 -39z" />
    <glyph glyph-name="aringacute" unicode="&#x1fb;" horiz-adv-x="526" 
d="M24 162c0 103 81 173 203 173c53 0 94 -16 113 -29v34c0 46 -34 77 -95 77c-52 0 -100 -17 -139 -37l-52 94c47 32 126 62 206 62c168 0 218 -88 218 -205v-331h-122l-9 34c-27 -29 -67 -47 -127 -47c-106 0 -196 65 -196 175zM162 166c0 -43 39 -72 91 -72s90 28 90 72
c0 46 -38 73 -91 73s-90 -30 -90 -73zM262 557c-60 0 -106 41 -106 99c0 59 46 99 106 99c62 0 108 -40 108 -98c0 -59 -46 -100 -108 -100zM263 617c23 0 38 16 38 40c0 22 -15 38 -38 38s-38 -16 -38 -39s15 -39 38 -39zM195 774l67 144h145l-97 -144h-115z" />
    <glyph glyph-name="AEacute" unicode="&#x1fc;" horiz-adv-x="857" 
d="M8 0l365 700h430v-127h-218v-156h187v-125h-187v-166h227v-126h-368v180h-192l-91 -180h-153zM439 563l-135 -266h140v266h-5zM446 738l67 144h145l-97 -144h-115z" />
    <glyph glyph-name="aeacute" unicode="&#x1fd;" horiz-adv-x="870" 
d="M162 166c0 -43 39 -72 91 -72s89 28 89 72c0 46 -37 73 -90 73s-90 -30 -90 -73zM482 317h224c-3 64 -48 106 -112 106s-106 -46 -112 -106zM478 227c3 -70 58 -120 136 -120c71 0 112 42 127 64l91 -69c-20 -37 -90 -115 -220 -115c-89 0 -162 31 -208 87
c-31 -48 -85 -87 -184 -87c-106 0 -196 65 -196 175c0 103 81 173 203 173c53 0 94 -16 113 -29v34c0 46 -34 77 -95 77c-52 0 -100 -17 -139 -37c-18 31 -35 63 -52 94c49 32 119 62 206 62c83 0 136 -26 167 -66c42 42 100 66 165 66c163 0 255 -108 255 -279
c0 -10 0 -20 -1 -30h-368zM363 581l67 144h145l-97 -144h-115z" />
    <glyph glyph-name="Oslashacute" unicode="&#x1fe;" horiz-adv-x="788" 
d="M394 -13c-72 0 -137 17 -191 48l-47 -59l-75 60l47 59c-62 64 -98 154 -98 255c0 204 149 363 364 363c70 0 133 -17 187 -47l46 58l76 -60l-46 -57c64 -65 101 -156 101 -257c0 -206 -149 -363 -364 -363zM611 350c0 55 -16 104 -44 143l-277 -349
c30 -16 65 -25 104 -25c126 0 217 97 217 231zM394 581c-126 0 -217 -99 -217 -231c0 -55 15 -103 41 -141l276 348c-29 15 -63 24 -100 24zM323 738l67 144h145l-97 -144h-115z" />
    <glyph glyph-name="oslashacute" unicode="&#x1ff;" horiz-adv-x="613" 
d="M25 260c0 159 122 276 281 276c51 0 98 -12 139 -34l38 48l66 -51l-37 -47c47 -49 76 -116 76 -192c0 -158 -118 -273 -282 -273c-51 0 -97 11 -137 31l-39 -50l-65 51l37 47c-48 49 -77 116 -77 194zM163 260c0 -34 8 -63 23 -87l180 228c-18 8 -38 13 -60 13
c-83 0 -143 -64 -143 -154zM450 260c0 32 -8 61 -22 85l-178 -226c17 -7 36 -10 56 -10c83 0 144 62 144 151zM233 581l67 144h145l-97 -144h-115z" />
    <glyph glyph-name="Wgrave" unicode="&#x1e80;" horiz-adv-x="975" 
d="M620 0l-132 483l-132 -483h-159l-188 700h154l121 -524l139 524h130l139 -524l122 524h153l-187 -700h-160zM468 882l67 -144h-115l-97 144h145z" />
    <glyph glyph-name="wgrave" unicode="&#x1e81;" horiz-adv-x="828" 
d="M510 0l-96 335l-97 -335h-154l-156 523h150l92 -371l100 371h130l99 -371l93 371h150l-157 -523h-154zM401 725l67 -144h-115l-97 144h145z" />
    <glyph glyph-name="Wacute" unicode="&#x1e82;" horiz-adv-x="976" 
d="M620 0l-132 483l-132 -483h-159l-188 700h154l121 -524l139 524h130l139 -524l122 524h153l-187 -700h-160zM426 738l67 144h145l-97 -144h-115z" />
    <glyph glyph-name="wacute" unicode="&#x1e83;" horiz-adv-x="828" 
d="M510 0l-96 335l-97 -335h-154l-156 523h150l92 -371l100 371h130l99 -371l93 371h150l-157 -523h-154zM359 581l67 144h145l-97 -144h-115z" />
    <glyph glyph-name="Wdieresis" unicode="&#x1e84;" horiz-adv-x="976" 
d="M620 0l-132 483l-132 -483h-159l-188 700h154l121 -524l139 524h130l139 -524l122 524h153l-187 -700h-160zM393 744c-40 0 -68 30 -68 68c0 37 28 68 68 68c39 0 68 -31 68 -68c0 -38 -29 -68 -68 -68zM585 744c-41 0 -68 30 -68 68c0 37 27 68 68 68
c39 0 68 -31 68 -68c0 -38 -29 -68 -68 -68z" />
    <glyph glyph-name="wdieresis" unicode="&#x1e85;" horiz-adv-x="828" 
d="M510 0l-96 335l-97 -335h-154l-156 523h150l92 -371l100 371h130l99 -371l93 371h150l-157 -523h-154zM317 585c-40 0 -68 30 -68 68c0 37 28 68 68 68c39 0 68 -31 68 -68c0 -38 -29 -68 -68 -68zM509 585c-41 0 -68 30 -68 68c0 37 27 68 68 68c39 0 68 -31 68 -68
c0 -38 -29 -68 -68 -68z" />
    <glyph glyph-name="Ygrave" unicode="&#x1ef2;" horiz-adv-x="584" 
d="M222 0v320l-215 380h159l126 -251l126 251h159l-215 -380v-320h-140zM297 882l67 -144h-115l-97 144h145z" />
    <glyph glyph-name="ygrave" unicode="&#x1ef3;" horiz-adv-x="540" 
d="M266 -179h-132l73 192l-201 510h148l117 -341l118 341h144zM277 725l67 -144h-115l-97 144h145z" />
    <glyph glyph-name="uni021A" unicode="&#x21a;" horiz-adv-x="511" 
d="M185 0v573h-164v127h468v-127h-163v-573h-141zM186 -240c18 14 42 38 49 65c-39 8 -59 41 -59 72c0 41 34 74 75 74c45 0 78 -34 78 -86c0 -72 -40 -138 -95 -176z" />
    <glyph glyph-name="uni021B" unicode="&#x21b;" horiz-adv-x="333" 
d="M67 523v110h136v-110h98v-112h-98v-202c0 -78 24 -94 77 -94c9 0 14 0 25 1v-118s-21 -5 -59 -5c-125 0 -180 70 -180 212v206h-55v112h56zM132 -240c18 14 42 38 49 65c-39 8 -59 41 -59 72c0 41 34 74 75 74c45 0 78 -34 78 -86c0 -72 -40 -138 -95 -176z" />
    </font>
</defs>
</svg>
