<?xml version="1.0" standalone="no"?>
<!DOCTYPE svg PUBLIC "-//W3C//DTD SVG 1.1//EN" "http://www.w3.org/Graphics/SVG/1.1/DTD/svg11.dtd" >
<svg xmlns="http://www.w3.org/2000/svg" xmlns:xlink="http://www.w3.org/1999/xlink" version="1.1">
<metadata>
Created by FontForge 20190801 at Fri Oct 14 19:16:30 2016
 By root
Copyright (c) 2014 by atipo. All rights reserved.
</metadata>
<defs>
<font id="Geomanist" horiz-adv-x="215" >
  <font-face 
    font-family="Geomanist"
    font-weight="400"
    font-stretch="normal"
    units-per-em="1000"
    panose-1="2 0 5 3 0 0 0 2 0 4"
    ascent="750"
    descent="-250"
    x-height="520"
    cap-height="700"
    bbox="-48 -237 1079 998"
    underline-thickness="50"
    underline-position="-100"
    unicode-range="U+0020-F6C3"
  />
<missing-glyph horiz-adv-x="508" 
d="M4 0v700h500v-700h-500zM254 395l170 255h-340zM284 350l170 -255v510zM54 95l170 255l-170 255v-510zM84 50h340l-170 255z" />
    <glyph glyph-name="ellipsis" unicode="&#x2e;&#x2e;&#x2e;" horiz-adv-x="675" 
d="M49 43c0 31 26 56 57 56s56 -25 56 -56s-25 -56 -56 -56s-57 25 -57 56zM281 43c0 31 25 56 56 56s57 -25 57 -56s-26 -56 -57 -56s-56 25 -56 56zM512 43c0 31 26 56 57 56s56 -25 56 -56s-25 -56 -56 -56s-57 25 -57 56z" />
    <glyph glyph-name=".notdef" horiz-adv-x="508" 
d="M4 0v700h500v-700h-500zM254 395l170 255h-340zM284 350l170 -255v510zM54 95l170 255l-170 255v-510zM84 50h340l-170 255z" />
    <glyph glyph-name="space" unicode=" " horiz-adv-x="254" 
 />
    <glyph glyph-name="numbersign" unicode="#" horiz-adv-x="648" 
d="M106 0l40 192h-116l13 65h116l39 185h-115l12 65h117l40 193h71l-39 -193h144l40 193h71l-39 -193h117l-12 -65h-119l-38 -185h118l-13 -65h-119l-40 -192h-71l39 192h-145l-40 -192h-71zM231 257h145l39 185h-145z" />
    <glyph glyph-name="percent" unicode="%" horiz-adv-x="757" 
d="M71 0l533 700h82l-534 -700h-81zM194 407c-89 0 -154 67 -154 152s65 154 153 154c92 0 158 -68 158 -154c0 -84 -67 -152 -157 -152zM195 469c54 0 88 40 88 90c0 51 -36 92 -89 92c-52 0 -87 -41 -87 -92c0 -50 36 -90 88 -90zM405 139c0 85 65 154 154 154
c91 0 157 -69 157 -154s-67 -152 -156 -152s-155 66 -155 152zM472 139c0 -51 36 -91 88 -91c54 0 88 40 88 91s-35 91 -89 91c-52 0 -87 -40 -87 -91z" />
    <glyph glyph-name="quotesingle" unicode="'" horiz-adv-x="167" 
d="M54 502l-6 198h70l-6 -198h-58z" />
    <glyph glyph-name="parenleft" unicode="(" horiz-adv-x="299" 
d="M146 606v-592c0 -50 22 -88 83 -88v-69c-103 0 -162 51 -162 161v584c0 111 59 161 162 161v-69c-61 0 -83 -37 -83 -88z" />
    <glyph glyph-name="parenright" unicode=")" horiz-adv-x="299" 
d="M153 14v592c0 51 -22 88 -83 88v69c103 0 162 -50 162 -161v-584c0 -110 -59 -161 -162 -161v69c61 0 83 38 83 88z" />
    <glyph glyph-name="asterisk" unicode="*" horiz-adv-x="428" 
d="M50 589l31 51l101 -60v120h62v-121l102 61l30 -50l-104 -61l105 -60l-31 -51l-102 60v-119h-62v119l-101 -60l-31 50l104 60z" />
    <glyph glyph-name="plus" unicode="+" horiz-adv-x="550" 
d="M40 278v67h199v213h72v-213h199v-67h-199v-214h-72v214h-199z" />
    <glyph glyph-name="comma" unicode="," horiz-adv-x="212" 
d="M49 43c0 31 24 56 55 56c33 0 59 -23 59 -60c0 -71 -34 -122 -77 -160l-37 36c17 13 44 43 49 73c-30 4 -49 29 -49 55z" />
    <glyph glyph-name="hyphen" unicode="-" horiz-adv-x="338" 
d="M41 264v74h255v-74h-255z" />
    <glyph glyph-name="period" unicode="." horiz-adv-x="213" 
d="M49 43c0 31 26 56 57 56s56 -25 56 -56s-25 -56 -56 -56s-57 25 -57 56z" />
    <glyph glyph-name="slash" unicode="/" horiz-adv-x="426" 
d="M25 -108l303 858h73l-303 -858h-73z" />
    <glyph glyph-name="zero" unicode="0" horiz-adv-x="554" 
d="M503 350c0 -230 -51 -363 -226 -363s-226 133 -226 363s51 363 226 363s226 -133 226 -363zM133 350c0 -165 12 -287 144 -287s143 123 143 287s-11 287 -143 287s-144 -124 -144 -287z" />
    <glyph glyph-name="one" unicode="1" horiz-adv-x="311" 
d="M65 585l-25 67l121 48h66v-700h-81v618z" />
    <glyph glyph-name="two" unicode="2" horiz-adv-x="510" 
d="M44 0v30c0 195 332 304 332 483c0 71 -46 124 -127 124c-79 0 -116 -51 -131 -108l-71 20c11 58 65 164 204 164c133 0 208 -86 208 -198c0 -208 -313 -322 -322 -443h332v-72h-425z" />
    <glyph glyph-name="three" unicode="3" horiz-adv-x="525" 
d="M454 700v-76l-183 -214c90 0 208 -59 208 -206c0 -124 -96 -216 -222 -216c-139 0 -198 83 -218 152l69 25c18 -56 61 -103 148 -103c80 0 140 58 140 140c0 80 -57 137 -164 137h-54v65l185 223h-301v73h392z" />
    <glyph glyph-name="four" unicode="4" horiz-adv-x="560" 
d="M31 177v61l319 462h86v-451h92v-72h-92v-177h-80v177h-325zM120 249h236v346z" />
    <glyph glyph-name="five" unicode="5" horiz-adv-x="523" 
d="M257 62c88 0 140 69 140 156c0 86 -54 156 -147 156c-56 0 -89 -23 -116 -46l-68 12l15 360h357v-74h-284l-10 -216c31 21 70 34 117 34c129 0 218 -92 218 -222c0 -133 -87 -235 -219 -235c-135 0 -200 84 -221 153l70 25c17 -57 62 -103 148 -103z" />
    <glyph glyph-name="six" unicode="6" horiz-adv-x="546" 
d="M279 63c81 0 137 57 137 163c0 86 -47 154 -138 154c-68 0 -118 -40 -147 -97c0 -116 19 -220 148 -220zM308 713c73 0 126 -28 158 -50l-37 -62c-24 17 -60 36 -118 36c-140 0 -178 -141 -178 -262c26 37 75 79 156 79c132 0 208 -96 208 -226
c0 -149 -85 -241 -221 -241c-178 0 -227 142 -227 307c0 251 69 419 259 419z" />
    <glyph glyph-name="seven" unicode="7" horiz-adv-x="483" 
d="M29 700h430v-62l-247 -638h-86l245 626h-342v74z" />
    <glyph glyph-name="eight" unicode="8" horiz-adv-x="549" 
d="M274 -13c-135 0 -229 84 -229 209c0 106 75 160 119 178c-37 18 -96 70 -96 152c0 112 88 187 206 187c119 0 207 -75 207 -187c0 -82 -59 -134 -96 -152c44 -18 119 -72 119 -178c0 -125 -95 -209 -230 -209zM274 333c-82 0 -146 -51 -146 -137c0 -71 52 -135 146 -135
c95 0 146 64 146 135c0 86 -63 137 -146 137zM274 407c73 0 125 53 125 116s-44 115 -125 115s-124 -52 -124 -115s52 -116 124 -116z" />
    <glyph glyph-name="nine" unicode="9" horiz-adv-x="546" 
d="M267 637c-81 0 -137 -57 -137 -163c0 -86 47 -154 138 -154c68 0 118 40 147 97c0 116 -19 220 -148 220zM238 -13c-73 0 -126 28 -158 50l37 62c24 -17 60 -36 118 -36c140 0 178 141 178 262c-26 -37 -75 -79 -156 -79c-132 0 -208 96 -208 226c0 149 85 241 221 241
c178 0 227 -142 227 -307c0 -251 -69 -419 -259 -419z" />
    <glyph glyph-name="colon" unicode=":" horiz-adv-x="212" 
d="M49 43c0 31 26 56 57 56s56 -25 56 -56s-25 -56 -56 -56s-57 25 -57 56zM49 431c0 31 26 56 57 56s56 -25 56 -56s-25 -57 -56 -57s-57 26 -57 57z" />
    <glyph glyph-name="semicolon" unicode=";" horiz-adv-x="212" 
d="M49 431c0 31 26 56 57 56s56 -25 56 -56s-25 -57 -56 -57s-57 26 -57 57zM49 43c0 31 24 56 55 56c33 0 59 -23 59 -60c0 -71 -34 -122 -77 -160l-37 36c17 13 44 41 49 73c-30 4 -49 29 -49 55z" />
    <glyph glyph-name="less" unicode="&#x3c;" horiz-adv-x="493" 
d="M43 280v64l406 185v-74l-323 -142l323 -145v-73z" />
    <glyph glyph-name="equal" unicode="=" horiz-adv-x="550" 
d="M40 357v66h470v-66h-470zM40 191v67h470v-67h-470z" />
    <glyph glyph-name="greater" unicode="&#x3e;" horiz-adv-x="493" 
d="M450 344v-64l-407 -185v73l324 145l-324 142v74z" />
    <glyph glyph-name="question" unicode="?" horiz-adv-x="467" 
d="M170 176v47c0 136 174 169 174 300c0 67 -44 117 -120 117c-74 0 -106 -49 -122 -84l-63 29c19 53 74 128 187 128c125 0 201 -80 201 -187c0 -163 -179 -195 -179 -306v-44h-78zM154 43c0 31 26 56 57 56s56 -25 56 -56s-25 -56 -56 -56s-57 25 -57 56z" />
    <glyph glyph-name="at" unicode="@" horiz-adv-x="891" 
d="M249 259c0 118 84 197 188 197c73 0 115 -42 127 -58v52h67v-255c0 -45 17 -73 61 -73c50 0 89 54 89 178c0 183 -126 316 -331 316c-204 0 -340 -159 -340 -352c0 -200 137 -348 334 -348c68 0 134 16 187 46l30 -49c-42 -29 -123 -58 -217 -58
c-223 0 -403 171 -403 408c0 234 171 413 410 413c248 0 397 -171 397 -375c0 -160 -64 -239 -161 -239c-61 0 -97 34 -109 76c-12 -21 -57 -76 -139 -76c-106 0 -190 78 -190 197zM321 259c0 -82 53 -135 123 -135c66 0 123 46 123 137c0 78 -49 132 -124 132
c-68 0 -122 -51 -122 -134z" />
    <glyph glyph-name="A" unicode="A" horiz-adv-x="631" 
d="M452 227h-274l-84 -227h-82l262 700h82l262 -700h-82zM428 297l-113 314l-112 -314h225z" />
    <glyph glyph-name="B" unicode="B" horiz-adv-x="544" 
d="M79 0v700h193c133 0 208 -68 208 -179c0 -70 -35 -124 -90 -154c67 -24 114 -83 114 -168c0 -126 -91 -199 -211 -199h-214zM160 397h121c70 0 116 47 116 118c0 69 -41 113 -116 113h-121v-231zM160 71h119c83 0 141 40 141 130c0 92 -61 128 -142 128h-118v-258z" />
    <glyph glyph-name="C" unicode="C" horiz-adv-x="656" 
d="M595 138l25 -71c-27 -24 -108 -80 -226 -80c-205 0 -355 156 -355 363c0 206 155 363 353 363c105 0 180 -43 217 -73l-26 -72c-27 22 -96 69 -189 69c-155 0 -271 -124 -271 -287s111 -287 273 -287c106 0 175 55 199 75z" />
    <glyph glyph-name="D" unicode="D" horiz-adv-x="637" 
d="M79 0v700h144c239 0 375 -131 375 -350c0 -232 -141 -350 -375 -350h-144zM160 72h79c168 0 276 95 276 278c0 175 -108 277 -276 277h-79v-555z" />
    <glyph glyph-name="E" unicode="E" horiz-adv-x="474" 
d="M79 0v700h332v-74h-251v-233h219v-73h-219v-247h262v-73h-343z" />
    <glyph glyph-name="F" unicode="F" horiz-adv-x="467" 
d="M79 0v700h332v-74h-251v-240h220v-73h-220v-313h-81z" />
    <glyph glyph-name="G" unicode="G" horiz-adv-x="736" 
d="M393 713c139 0 222 -65 258 -102l-52 -54c-32 31 -94 80 -204 80c-161 0 -271 -124 -271 -288c0 -169 114 -287 270 -287c117 0 183 51 205 73v147h-156v71h234v-253c-76 -77 -167 -113 -286 -113c-199 0 -352 149 -352 362c0 205 149 364 354 364z" />
    <glyph glyph-name="H" unicode="H" horiz-adv-x="692" 
d="M79 0v700h81v-307h372v307h81v-700h-81v319h-372v-319h-81z" />
    <glyph glyph-name="I" unicode="I" horiz-adv-x="239" 
d="M79 0v700h81v-700h-81z" />
    <glyph glyph-name="J" unicode="J" horiz-adv-x="345" 
d="M22 4l9 72s33 -9 66 -9c55 0 88 31 88 102v531h81v-542c0 -108 -61 -164 -160 -164c-42 0 -75 7 -84 10z" />
    <glyph glyph-name="K" unicode="K" horiz-adv-x="565" 
d="M79 0v700h81v-322l279 322h98l-294 -335l306 -365h-99l-290 352v-352h-81z" />
    <glyph glyph-name="L" unicode="L" horiz-adv-x="449" 
d="M79 0v700h81v-627h262v-73h-343z" />
    <glyph glyph-name="M" unicode="M" horiz-adv-x="867" 
d="M182 700l251 -540l252 540h103v-700h-78v578l-237 -514h-80l-237 514v-578h-78v700h104z" />
    <glyph glyph-name="N" unicode="N" horiz-adv-x="704" 
d="M78 0v700h81l386 -557v557h80v-700h-80l-386 555v-555h-81z" />
    <glyph glyph-name="O" unicode="O" horiz-adv-x="791" 
d="M38 350c0 206 154 363 357 363c204 0 357 -159 357 -363c0 -206 -154 -363 -358 -363c-203 0 -356 155 -356 363zM122 350c0 -166 118 -287 273 -287s273 121 273 287c0 164 -118 287 -273 287s-273 -123 -273 -287z" />
    <glyph glyph-name="P" unicode="P" horiz-adv-x="508" 
d="M79 0v700h192c127 0 209 -75 209 -202c0 -126 -86 -205 -209 -205h-111v-293h-81zM160 365h104c84 0 133 52 133 133c0 80 -49 130 -133 130h-104v-263z" />
    <glyph glyph-name="Q" unicode="Q" horiz-adv-x="791" 
d="M38 350c0 206 154 363 357 363c204 0 357 -159 357 -363c0 -93 -32 -176 -85 -238l74 -73l-53 -53l-75 73c-59 -46 -136 -72 -219 -72c-203 0 -356 155 -356 363zM122 350c0 -166 118 -287 273 -287c60 0 118 18 161 51l-78 75l52 54l78 -75c39 47 60 110 60 182
c0 164 -118 287 -273 287s-273 -123 -273 -287z" />
    <glyph glyph-name="R" unicode="R" horiz-adv-x="547" 
d="M79 0v700h178c143 0 218 -72 218 -194c0 -83 -41 -159 -122 -185l174 -321h-90l-158 304h-119v-304h-81zM160 375h97c82 0 133 38 133 130c0 74 -39 123 -138 123h-92v-253z" />
    <glyph glyph-name="S" unicode="S" horiz-adv-x="506" 
d="M34 141l69 30c19 -54 61 -109 153 -109c74 0 127 43 127 116c0 175 -328 130 -328 356c0 100 76 179 200 179c125 0 181 -87 198 -134l-68 -28c-16 35 -54 88 -131 88s-118 -47 -118 -105c0 -160 329 -127 329 -351c0 -110 -81 -196 -212 -196c-136 0 -197 87 -219 154z
" />
    <glyph glyph-name="T" unicode="T" horiz-adv-x="511" 
d="M210 0v626h-189v74h458v-74h-188v-626h-81z" />
    <glyph glyph-name="U" unicode="U" horiz-adv-x="672" 
d="M336 -13c-168 0 -261 105 -261 264v449h81v-448c0 -116 62 -190 180 -190s181 74 181 191v447h80v-448c0 -158 -95 -265 -261 -265z" />
    <glyph glyph-name="V" unicode="V" horiz-adv-x="637" 
d="M362 0h-87l-266 700h89l220 -604l221 604h89z" />
    <glyph glyph-name="W" unicode="W" horiz-adv-x="943" 
d="M641 0l-170 581l-170 -581h-90l-200 700h87l161 -597l172 597h80l172 -597l162 597h86l-199 -700h-91z" />
    <glyph glyph-name="X" unicode="X" horiz-adv-x="603" 
d="M13 0l238 362l-221 338h97l174 -276l175 276h95l-221 -338l239 -362h-92l-198 301l-195 -301h-91z" />
    <glyph glyph-name="Y" unicode="Y" horiz-adv-x="532" 
d="M226 0v328l-217 372h93l164 -295l167 295h90l-217 -372v-328h-80z" />
    <glyph glyph-name="Z" unicode="Z" horiz-adv-x="594" 
d="M35 0v59l412 568h-399v73h504v-60l-413 -567h415v-73h-519z" />
    <glyph glyph-name="bracketleft" unicode="[" horiz-adv-x="299" 
d="M67 -143v906h162v-69h-83v-768h83v-69h-162z" />
    <glyph glyph-name="backslash" unicode="\" horiz-adv-x="426" 
d="M98 750l303 -858h-73l-303 858h73z" />
    <glyph glyph-name="bracketright" unicode="]" horiz-adv-x="305" 
d="M232 763v-906h-162v69h83v768h-83v69h162z" />
    <glyph glyph-name="asciicircum" unicode="^" horiz-adv-x="523" 
d="M45 318l182 382h68l183 -382h-79l-138 302l-138 -302h-78z" />
    <glyph glyph-name="underscore" unicode="_" horiz-adv-x="606" 
d="M33 -29h540v-66h-540v66z" />
    <glyph glyph-name="grave" unicode="`" horiz-adv-x="489" 
d="M252 725l72 -142h-70l-88 142h86z" />
    <glyph glyph-name="a" unicode="a" horiz-adv-x="510" 
d="M34 160c0 99 83 171 200 171c66 0 116 -25 137 -47v64c0 73 -49 115 -126 115c-64 0 -116 -23 -153 -45l-32 58c35 22 104 57 192 57c142 0 198 -79 198 -190v-343h-68l-9 44c-27 -31 -71 -57 -141 -57c-114 0 -198 72 -198 173zM114 161c0 -60 51 -108 131 -108
c76 0 129 45 129 108c0 65 -52 107 -130 107c-79 0 -130 -46 -130 -107z" />
    <glyph glyph-name="b" unicode="b" horiz-adv-x="612" 
d="M68 0v723h79v-287c16 27 75 97 184 97c147 0 248 -114 248 -274c0 -159 -106 -272 -254 -272c-113 0 -168 76 -181 95v-82h-76zM144 258c0 -109 68 -200 176 -200c100 0 178 79 178 200c0 119 -74 203 -176 203c-98 0 -178 -74 -178 -203z" />
    <glyph glyph-name="c" unicode="c" horiz-adv-x="512" 
d="M482 462l-27 -68c-21 22 -75 66 -154 66c-109 0 -186 -87 -186 -200c0 -112 81 -201 188 -201c82 0 134 48 155 69l24 -67c-21 -22 -85 -74 -182 -74c-155 0 -267 119 -267 273s115 273 266 273c95 0 156 -45 183 -71z" />
    <glyph glyph-name="d" unicode="d" horiz-adv-x="612" 
d="M544 723v-723h-77v82c-13 -19 -67 -95 -180 -95c-149 0 -254 113 -254 272c0 160 100 274 248 274c108 0 168 -70 183 -97v287h80zM467 258c0 129 -80 203 -177 203c-102 0 -176 -84 -176 -203c0 -121 77 -200 177 -200c109 0 176 91 176 200z" />
    <glyph glyph-name="e" unicode="e" horiz-adv-x="565" 
d="M34 258c0 166 114 275 252 275c153 0 247 -110 247 -266c0 -3 0 -14 -1 -24h-417c1 -116 79 -186 187 -186c88 0 137 46 162 81l52 -38c-29 -49 -97 -113 -215 -113c-158 0 -267 111 -267 271zM119 302h333c-5 108 -80 163 -166 163c-85 0 -161 -65 -167 -163z" />
    <glyph glyph-name="f" unicode="f" horiz-adv-x="294" 
d="M84 0v453h-58v67h58v27c0 131 79 173 163 173c17 0 33 -2 33 -2v-69s-13 2 -25 2c-59 0 -91 -32 -91 -104v-27h111v-67h-111v-453h-80z" />
    <glyph glyph-name="g" unicode="g" horiz-adv-x="607" 
d="M96 -140l28 62c20 -12 82 -43 157 -43c99 0 183 41 183 157v46c-12 -19 -66 -95 -180 -95c-149 0 -251 113 -251 272c0 160 103 274 250 274c108 0 167 -69 184 -97v84h76v-448c0 -197 -111 -264 -261 -264c-68 0 -141 24 -186 52zM467 259c0 126 -79 202 -178 202
c-101 0 -176 -83 -176 -202c0 -121 78 -200 178 -200c107 0 176 88 176 200z" />
    <glyph glyph-name="h" unicode="h" horiz-adv-x="548" 
d="M301 533c121 0 184 -90 184 -208v-325h-79v328c0 83 -53 133 -123 133c-80 0 -136 -59 -136 -145v-316h-79v723h79v-278c25 47 83 88 154 88z" />
    <glyph glyph-name="i" unicode="i" 
d="M68 0v520h79v-520h-79zM53 654c0 30 24 54 54 54c31 0 55 -24 55 -54c0 -31 -24 -55 -55 -55c-30 0 -54 24 -54 55z" />
    <glyph glyph-name="j" unicode="j" 
d="M68 -15v535h79v-537c0 -132 -73 -174 -162 -174c-13 0 -27 2 -27 2v68s13 -1 22 -1c58 0 88 33 88 107zM53 654c0 30 24 54 54 54c31 0 55 -24 55 -54c0 -31 -24 -55 -55 -55c-30 0 -54 24 -54 55z" />
    <glyph glyph-name="k" unicode="k" horiz-adv-x="478" 
d="M68 0v723h79v-426l212 223h100l-224 -233l237 -287h-102l-223 277v-277h-79z" />
    <glyph glyph-name="l" unicode="l" 
d="M68 0v723h79v-723h-79z" />
    <glyph glyph-name="m" unicode="m" horiz-adv-x="859" 
d="M795 337v-337h-79v313c0 98 -40 148 -117 148c-73 0 -128 -52 -128 -149v-312h-79v328c0 83 -46 133 -119 133c-69 0 -126 -58 -126 -146v-315h-79v520h78v-75c20 45 75 88 147 88c78 0 133 -38 157 -95c31 62 93 95 167 95c116 0 178 -82 178 -196z" />
    <glyph glyph-name="n" unicode="n" horiz-adv-x="548" 
d="M301 533c121 0 183 -90 183 -208v-325h-79v328c0 83 -52 133 -123 133c-80 0 -135 -59 -135 -145v-316h-79v520h78v-75c25 47 83 88 155 88z" />
    <glyph glyph-name="o" unicode="o" horiz-adv-x="609" 
d="M114 260c0 -117 79 -201 190 -201c112 0 192 85 192 201c0 115 -80 201 -192 201s-190 -87 -190 -201zM33 260c0 157 117 273 272 273c157 0 271 -117 271 -273s-116 -273 -272 -273s-271 115 -271 273z" />
    <glyph glyph-name="p" unicode="p" horiz-adv-x="613" 
d="M68 -187v707h76v-82c13 19 68 95 181 95c148 0 254 -113 254 -272c0 -161 -101 -274 -248 -274c-109 0 -168 70 -184 97v-271h-79zM144 261c0 -128 80 -202 178 -202c102 0 176 83 176 202c0 122 -78 200 -178 200c-108 0 -176 -91 -176 -200z" />
    <glyph glyph-name="q" unicode="q" horiz-adv-x="613" 
d="M544 520v-707h-79v271c-15 -27 -75 -97 -183 -97c-148 0 -248 113 -248 274c0 159 105 272 254 272c113 0 167 -76 180 -95v82h76zM468 261c0 109 -67 200 -176 200c-100 0 -178 -78 -178 -200c0 -119 75 -202 176 -202c98 0 178 74 178 202z" />
    <glyph glyph-name="r" unicode="r" horiz-adv-x="321" 
d="M301 533v-79c-119 0 -154 -94 -154 -205v-249h-79v520h78v-87c18 52 76 100 155 100z" />
    <glyph glyph-name="s" unicode="s" horiz-adv-x="417" 
d="M29 98l55 36c22 -41 59 -80 130 -80c52 0 96 30 96 83c0 120 -261 79 -261 255c0 88 73 141 167 141c97 0 147 -61 161 -100l-58 -33c-14 28 -41 67 -108 67c-48 0 -86 -27 -86 -72c0 -117 262 -73 262 -254c0 -92 -76 -154 -177 -154c-109 0 -158 62 -181 111z" />
    <glyph glyph-name="t" unicode="t" horiz-adv-x="295" 
d="M74 520v109h79v-109h114v-67h-114v-268c0 -97 28 -120 96 -120c10 0 22 1 22 1v-70s-21 -3 -48 -3c-104 0 -149 68 -149 185v275h-61v67h61z" />
    <glyph glyph-name="u" unicode="u" horiz-adv-x="543" 
d="M247 -13c-121 0 -184 90 -184 208v325h79v-328c0 -83 53 -133 123 -133c80 0 135 59 135 145v316h80v-520h-79v75c-24 -47 -83 -88 -154 -88z" />
    <glyph glyph-name="v" unicode="v" horiz-adv-x="501" 
d="M294 0h-87l-201 520h85l160 -431l159 431h84z" />
    <glyph glyph-name="w" unicode="w" horiz-adv-x="816" 
d="M546 0l-138 413l-139 -413h-87l-175 520h86l136 -428s1 2 140 428h78c138 -426 139 -428 139 -428l137 428h86l-176 -520h-87z" />
    <glyph glyph-name="x" unicode="x" horiz-adv-x="504" 
d="M402 0l-150 210l-151 -210h-90l194 269l-180 251h93l134 -195l134 195h93l-180 -251l194 -269h-91z" />
    <glyph glyph-name="y" unicode="y" horiz-adv-x="508" 
d="M222 -179h-79l75 184l-212 515h86l165 -418l160 418h84z" />
    <glyph glyph-name="z" unicode="z" horiz-adv-x="462" 
d="M32 0v56l298 396h-289v68h382v-57l-297 -396h302v-67h-396z" />
    <glyph glyph-name="braceleft" unicode="{" horiz-adv-x="341" 
d="M109 18v143c0 83 -27 113 -73 113v72c47 0 73 30 73 113v143c0 111 59 161 162 161v-69c-61 0 -83 -37 -83 -88v-165c0 -95 -50 -125 -67 -131c17 -6 67 -36 67 -131v-165c0 -51 22 -88 83 -88v-69c-103 0 -162 50 -162 161z" />
    <glyph glyph-name="bar" unicode="|" horiz-adv-x="252" 
d="M88 -206v989h76v-989h-76z" />
    <glyph glyph-name="braceright" unicode="}" horiz-adv-x="341" 
d="M232 161v-143c0 -111 -59 -161 -162 -161v69c61 0 83 37 83 88v165c0 95 50 125 67 131c-17 6 -67 36 -67 131v165c0 51 -22 88 -83 88v69c103 0 162 -50 162 -161v-143c0 -83 26 -113 73 -113v-72c-46 0 -73 -30 -73 -113z" />
    <glyph glyph-name="asciitilde" unicode="~" horiz-adv-x="536" 
d="M362 306c43 0 62 33 63 69h66c0 -72 -43 -140 -126 -140c-78 0 -119 69 -191 69c-44 0 -62 -33 -64 -69h-65c0 79 46 140 127 140c79 0 135 -69 190 -69z" />
    <glyph glyph-name="exclamdown" unicode="&#xa1;" horiz-adv-x="258" 
d="M164 371l7 -524h-83l7 524h69zM186 504c0 -31 -26 -56 -57 -56s-56 25 -56 56s25 56 56 56s57 -25 57 -56z" />
    <glyph glyph-name="sterling" unicode="&#xa3;" horiz-adv-x="555" 
d="M48 315v67h58v129c0 119 77 202 202 202c114 0 170 -76 185 -128l-65 -29c-13 35 -50 81 -119 81c-81 0 -122 -51 -122 -130v-125h168v-67h-168v-243h321v-72h-469v72h67v243h-58z" />
    <glyph glyph-name="yen" unicode="&#xa5;" horiz-adv-x="550" 
d="M76 327v60h125l-183 313h93l164 -295l167 295h90l-183 -313h125v-60h-159v-90h159v-59h-159v-178h-80v178h-159v59h159v90h-159z" />
    <glyph glyph-name="dieresis" unicode="&#xa8;" horiz-adv-x="489" 
d="M112 653c0 27 22 50 50 50c29 0 50 -23 50 -50c0 -28 -21 -50 -50 -50c-28 0 -50 22 -50 50zM276 653c0 27 21 50 50 50c28 0 50 -23 50 -50c0 -28 -22 -50 -50 -50c-29 0 -50 22 -50 50z" />
    <glyph glyph-name="copyright" unicode="&#xa9;" horiz-adv-x="804" 
d="M43 348c0 202 152 365 356 365c210 0 361 -162 361 -365s-149 -362 -359 -362c-208 0 -358 159 -358 362zM107 348c0 -173 121 -305 294 -305c175 0 295 131 295 306c0 173 -120 306 -297 306c-171 0 -292 -133 -292 -307zM220 347c0 108 71 194 185 194
c78 0 127 -43 149 -72l-44 -41c-14 17 -48 51 -105 51c-77 0 -117 -57 -117 -131s40 -131 117 -131c57 0 91 34 105 51l44 -40c-22 -30 -71 -73 -149 -73c-114 0 -185 84 -185 192z" />
    <glyph glyph-name="ordfeminine" unicode="&#xaa;" horiz-adv-x="408" 
d="M44 432c0 76 62 130 152 130c45 0 82 -17 100 -32v41c0 54 -37 84 -92 84c-47 0 -87 -18 -116 -34l-26 48c27 17 79 44 148 44c107 0 149 -61 149 -146v-258h-54l-7 30c-21 -22 -55 -39 -104 -39c-87 0 -150 54 -150 132zM107 433c0 -44 38 -79 97 -79c55 0 95 32 95 79
c0 46 -39 77 -95 77c-59 0 -97 -34 -97 -77z" />
    <glyph glyph-name="guillemotleft" unicode="&#xab;" horiz-adv-x="428" 
d="M192 292l125 184h77l-125 -184l125 -183h-77zM158 109l-124 183l124 184h77l-124 -184l124 -183h-77z" />
    <glyph glyph-name="registered" unicode="&#xae;" horiz-adv-x="452" 
d="M231 512h-28v-82h-47v216h75c48 0 74 -26 74 -66c0 -30 -15 -49 -33 -57l41 -93h-49zM231 605h-28v-52h28c16 0 25 11 25 26c0 16 -10 26 -25 26zM19 538c0 113 81 204 204 204c128 0 208 -90 208 -203c0 -111 -79 -204 -206 -204c-125 0 -206 89 -206 203zM65 538
c0 -91 60 -161 160 -161c101 0 160 68 160 162s-60 160 -162 160c-98 0 -158 -68 -158 -161z" />
    <glyph glyph-name="macron" unicode="&#xaf;" horiz-adv-x="451" 
d="M104 629v63h242v-63h-242z" />
    <glyph glyph-name="degree" unicode="&#xb0;" horiz-adv-x="356" 
d="M31 568c0 79 60 145 146 145c87 0 147 -65 147 -144c0 -81 -59 -145 -147 -145s-146 64 -146 144zM94 568c0 -48 32 -85 83 -85s83 37 83 86c0 48 -32 85 -83 85c-50 0 -83 -38 -83 -86z" />
    <glyph glyph-name="twosuperior" unicode="&#xb2;" horiz-adv-x="342" 
d="M47 304v40c0 120 184 164 184 245c0 33 -24 60 -64 60c-42 0 -60 -31 -69 -52l-52 21c14 40 50 90 123 90c78 0 127 -49 127 -118c0 -110 -171 -145 -177 -230h183v-56h-255z" />
    <glyph glyph-name="threesuperior" unicode="&#xb3;" horiz-adv-x="341" 
d="M292 700v-48l-104 -113c62 -1 117 -44 117 -118c0 -80 -60 -125 -135 -125c-76 0 -114 47 -131 90l51 22c11 -25 33 -54 79 -54c39 0 70 23 70 68c0 44 -28 70 -82 70h-37v49l94 102h-157v57h235z" />
    <glyph glyph-name="acute" unicode="&#xb4;" horiz-adv-x="489" 
d="M165 583l71 142h87l-89 -142h-69z" />
    <glyph glyph-name="paragraph" unicode="&#xb6;" horiz-adv-x="505" 
d="M230 -45v374c-106 1 -188 83 -188 186s82 185 185 185h71v-745h-68zM363 -45v745h69v-745h-69z" />
    <glyph glyph-name="periodcentered" unicode="&#xb7;" horiz-adv-x="226" 
d="M56 314c0 31 25 56 56 56s57 -25 57 -56s-26 -57 -57 -57s-56 26 -56 57z" />
    <glyph glyph-name="cedilla" unicode="&#xb8;" horiz-adv-x="451" 
d="M179 10h50l-8 -57c50 -5 80 -39 80 -85c0 -67 -54 -93 -113 -93c-17 0 -39 4 -42 5l9 51s16 -3 30 -3c28 0 56 8 56 41c0 27 -23 41 -57 41c-10 0 -19 -2 -19 -2z" />
    <glyph glyph-name="onesuperior" unicode="&#xb9;" horiz-adv-x="254" 
d="M63 616l-17 54l79 30h52v-396h-64v332z" />
    <glyph glyph-name="ordmasculine" unicode="&#xba;" horiz-adv-x="468" 
d="M92 505c0 -85 58 -148 141 -148c82 0 140 64 140 149s-58 148 -140 148c-83 0 -141 -64 -141 -149zM27 505c0 120 88 208 207 208c118 0 204 -88 204 -207c0 -118 -88 -206 -205 -206c-119 0 -206 87 -206 205z" />
    <glyph glyph-name="guillemotright" unicode="&#xbb;" horiz-adv-x="428" 
d="M111 476l125 -184l-125 -183h-77l125 183l-125 184h77zM394 292l-124 -183h-77l124 183l-124 184h77z" />
    <glyph glyph-name="onequarter" unicode="&#xbc;" horiz-adv-x="789" 
d="M237 -41h-73l389 782h73zM639 0v79h-190v49l189 268h65v-260h51v-57h-51v-79h-64zM516 136h123v178c-122 -178 -123 -178 -123 -178zM92 616l-17 54l78 30h53v-396h-65v332z" />
    <glyph glyph-name="onehalf" unicode="&#xbd;" horiz-adv-x="799" 
d="M92 616l-17 54l78 30h53v-396h-65v332zM217 -41h-73l390 782h73zM488 0v40c0 120 184 164 184 245c0 33 -24 60 -64 60c-42 0 -60 -31 -69 -52l-52 21c14 40 50 90 123 90c78 0 127 -49 127 -118c0 -110 -171 -145 -177 -230h183v-56h-255z" />
    <glyph glyph-name="threequarters" unicode="&#xbe;" horiz-adv-x="844" 
d="M292 -41h-73l390 782h73zM678 0v79h-190v49l189 268h65v-260h51v-57h-51v-79h-64zM555 136h123v178c-122 -178 -123 -178 -123 -178zM307 700v-48l-104 -113c62 -1 117 -44 117 -118c0 -80 -60 -125 -135 -125c-76 0 -114 47 -131 90l51 22c11 -25 33 -54 79 -54
c39 0 70 23 70 68c0 44 -28 70 -82 70h-37v49l94 102h-157v57h235z" />
    <glyph glyph-name="questiondown" unicode="&#xbf;" horiz-adv-x="467" 
d="M296 370v-47c0 -136 -174 -169 -174 -300c0 -67 44 -117 120 -117c75 0 107 49 123 84l62 -29c-19 -53 -73 -127 -187 -127c-125 0 -201 79 -201 186c0 163 179 195 179 306v44h78zM312 503c0 -31 -25 -56 -56 -56s-56 25 -56 56s25 57 56 57s56 -26 56 -57z" />
    <glyph glyph-name="AE" unicode="&#xc6;" horiz-adv-x="811" 
d="M8 0l357 700h383v-74h-251v-233h219v-73h-219v-247h261v-73h-342v227h-209l-111 -227h-88zM401 626l-160 -329h175v329h-15z" />
    <glyph glyph-name="Eth" unicode="&#xd0;" horiz-adv-x="640" 
d="M24 318v72h58v310h145c238 0 375 -131 375 -350c0 -232 -142 -350 -375 -350h-145v318h-58zM163 72h80c168 0 275 95 275 278c0 175 -107 277 -275 277h-80v-237h145v-72h-145v-246z" />
    <glyph glyph-name="multiply" unicode="&#xd7;" horiz-adv-x="531" 
d="M47 124l171 184l-171 185l47 48l171 -184l171 184l46 -47l-172 -185l173 -186l-47 -47l-172 185l-170 -184z" />
    <glyph glyph-name="Thorn" unicode="&#xde;" horiz-adv-x="513" 
d="M79 0v700h81v-137h115c127 0 209 -74 209 -201s-87 -205 -209 -205h-115v-157h-81zM160 228h108c83 0 133 52 133 133s-49 130 -133 130h-108v-263z" />
    <glyph glyph-name="germandbls" unicode="&#xdf;" horiz-adv-x="538" 
d="M252 649c-71 0 -106 -41 -106 -116v-533h-80v547c0 122 77 173 186 173c113 0 179 -70 179 -147c0 -72 -37 -111 -79 -130c87 -25 156 -98 156 -205c0 -164 -119 -238 -271 -238v70c85 0 190 41 190 167c0 110 -96 164 -190 164v69c54 0 114 28 114 92
c0 54 -40 87 -99 87z" />
    <glyph glyph-name="eth" unicode="&#xf0;" horiz-adv-x="591" 
d="M35 248c0 145 105 254 258 254c49 0 89 -18 108 -31c-30 45 -80 92 -111 112l-161 -63l-9 58l117 47c-34 24 -71 46 -109 66l51 39c43 -19 94 -48 136 -77l123 48l10 -58l-82 -33c121 -97 186 -213 186 -342c0 -155 -89 -281 -262 -281c-153 0 -255 116 -255 261z
M116 248c0 -104 68 -190 175 -190c121 0 180 93 180 202c0 95 -71 175 -174 175c-115 0 -181 -85 -181 -187z" />
    <glyph glyph-name="divide" unicode="&#xf7;" horiz-adv-x="550" 
d="M224 485c0 28 23 51 51 51s50 -23 50 -51s-22 -50 -50 -50s-51 22 -51 50zM224 137c0 28 23 51 51 51s50 -23 50 -51c0 -27 -22 -50 -50 -50s-51 23 -51 50zM40 278v67h470v-67h-470z" />
    <glyph glyph-name="thorn" unicode="&#xfe;" horiz-adv-x="613" 
d="M68 -187v910h79v-283c15 20 68 93 178 93c148 0 254 -113 254 -272c0 -161 -101 -274 -248 -274c-109 0 -168 70 -184 97v-271h-79zM144 261c0 -128 80 -202 178 -202c102 0 176 83 176 202c0 122 -78 200 -178 200c-108 0 -176 -91 -176 -200z" />
    <glyph glyph-name="Dcroat" unicode="&#x110;" horiz-adv-x="637" 
d="M24 318v72h58v310h145c238 0 375 -131 375 -350c0 -232 -142 -350 -375 -350h-145v318h-58zM163 72h80c168 0 275 95 275 278c0 175 -107 277 -275 277h-80v-237h145v-72h-145v-246z" />
    <glyph glyph-name="dotlessi" unicode="&#x131;" 
d="M68 0v520h79v-520h-79z" />
    <glyph glyph-name="florin" unicode="&#x192;" horiz-adv-x="455" 
d="M248 351l-45 -321c-3 -23 -6 -45 -10 -67c-21 -120 -100 -155 -173 -155c-30 0 -58 6 -58 6l10 68s22 -5 46 -5c60 0 91 35 104 133l47 341h-72v67h81l17 123c18 129 99 167 176 167c31 0 58 -6 58 -6l-9 -68s-23 5 -47 5c-56 0 -90 -27 -102 -113l-14 -108h104v-67h-113
z" />
    <glyph glyph-name="circumflex" unicode="&#x2c6;" horiz-adv-x="451" 
d="M287 594l-62 82l-61 -82h-75l94 130h84l94 -130h-74z" />
    <glyph glyph-name="caron" unicode="&#x2c7;" horiz-adv-x="451" 
d="M225 642l62 82h74l-94 -130h-84l-94 130h75z" />
    <glyph glyph-name="breve" unicode="&#x2d8;" horiz-adv-x="451" 
d="M225 587c-84 0 -127 56 -127 126h63c0 -39 17 -71 64 -71c46 0 64 32 64 71h63c0 -70 -43 -126 -127 -126z" />
    <glyph glyph-name="dotaccent" unicode="&#x2d9;" horiz-adv-x="451" 
d="M171 654c0 30 24 54 54 54c31 0 55 -24 55 -54c0 -31 -24 -55 -55 -55c-30 0 -54 24 -54 55z" />
    <glyph glyph-name="ring" unicode="&#x2da;" horiz-adv-x="451" 
d="M135 664c0 51 38 87 89 87c54 0 91 -36 91 -86c0 -51 -38 -88 -90 -88s-90 37 -90 87zM184 664c0 -25 16 -42 41 -42c26 0 41 17 41 43c0 24 -15 41 -42 41c-24 0 -40 -17 -40 -42z" />
    <glyph glyph-name="ogonek" unicode="&#x2db;" horiz-adv-x="451" 
d="M154 -101c0 50 42 88 75 101h67c-18 -7 -70 -38 -70 -83c0 -34 30 -48 61 -48v-62s-8 -2 -24 -2c-53 0 -109 30 -109 94z" />
    <glyph glyph-name="tilde" unicode="&#x2dc;" horiz-adv-x="451" 
d="M289 601c-52 0 -87 45 -126 45c-22 0 -37 -17 -38 -44h-57c0 64 39 105 94 105c51 0 89 -44 125 -44c22 0 37 17 38 44h56c0 -64 -37 -106 -92 -106z" />
    <glyph glyph-name="hungarumlaut" unicode="&#x2dd;" horiz-adv-x="457" 
d="M214 583l71 142h83l-89 -142h-65zM88 583l71 142h83l-89 -142h-65z" />
    <glyph glyph-name="endash" unicode="&#x2013;" horiz-adv-x="600" 
d="M41 267v68h518v-68h-518z" />
    <glyph glyph-name="emdash" unicode="&#x2014;" horiz-adv-x="866" 
d="M41 267v68h783v-68h-783z" />
    <glyph glyph-name="quoteleft" unicode="&#x2018;" horiz-adv-x="185" 
d="M148 553c0 -31 -24 -57 -55 -57c-33 0 -59 24 -59 61c0 70 34 122 77 159l37 -36c-17 -12 -44 -42 -49 -72c30 -5 49 -29 49 -55z" />
    <glyph glyph-name="quoteright" unicode="&#x2019;" horiz-adv-x="185" 
d="M37 660c0 31 23 56 54 56c34 0 59 -23 59 -60c0 -71 -34 -122 -77 -160l-37 36c17 13 44 43 49 73c-30 4 -48 29 -48 55z" />
    <glyph glyph-name="quotesinglbase" unicode="&#x201a;" horiz-adv-x="212" 
d="M49 43c0 31 24 56 55 56c33 0 59 -23 59 -60c0 -71 -34 -122 -77 -160l-37 36c17 13 44 43 49 73c-30 4 -49 29 -49 55z" />
    <glyph glyph-name="quotedblleft" unicode="&#x201c;" horiz-adv-x="333" 
d="M148 553c0 -31 -24 -57 -55 -57c-33 0 -59 24 -59 61c0 70 34 122 77 159l37 -36c-17 -12 -44 -42 -49 -72c30 -5 49 -29 49 -55zM296 553c0 -31 -24 -57 -55 -57c-33 0 -59 24 -59 61c0 70 34 122 77 159l37 -36c-17 -12 -44 -42 -49 -72c30 -5 49 -29 49 -55z" />
    <glyph glyph-name="quotedblright" unicode="&#x201d;" horiz-adv-x="333" 
d="M185 660c0 31 23 56 54 56c34 0 59 -23 59 -60c0 -71 -34 -122 -77 -160l-37 36c17 13 44 43 49 73c-30 4 -48 29 -48 55zM37 660c0 31 23 56 54 56c34 0 59 -23 59 -60c0 -71 -34 -122 -77 -160l-37 36c17 13 44 43 49 73c-30 4 -48 29 -48 55z" />
    <glyph glyph-name="quotedblbase" unicode="&#x201e;" horiz-adv-x="333" 
d="M185 43c0 31 23 56 54 56c34 0 59 -23 59 -60c0 -71 -34 -122 -77 -160l-37 36c17 13 44 43 49 73c-30 4 -48 29 -48 55zM37 43c0 31 23 56 54 56c34 0 59 -23 59 -60c0 -71 -34 -122 -77 -160l-37 36c17 13 44 43 49 73c-30 4 -48 29 -48 55z" />
    <glyph glyph-name="dagger" unicode="&#x2020;" horiz-adv-x="378" 
d="M148 0v456h-115v70h115v174h79v-174h117v-70h-117v-456h-79z" />
    <glyph glyph-name="daggerdbl" unicode="&#x2021;" horiz-adv-x="393" 
d="M41 189v70h115v181h-115v70h115v190h78v-190h118v-70h-118v-181h118v-70h-118v-189h-78v189h-115z" />
    <glyph glyph-name="bullet" unicode="&#x2022;" horiz-adv-x="406" 
d="M203 138c-99 0 -172 77 -172 172s73 172 172 172s172 -77 172 -172s-73 -172 -172 -172z" />
    <glyph glyph-name="perthousand" unicode="&#x2030;" horiz-adv-x="1119" 
d="M71 0l533 700h82l-534 -700h-81zM194 407c-89 0 -154 67 -154 152s65 154 153 154c92 0 158 -68 158 -154c0 -84 -67 -152 -157 -152zM195 469c54 0 88 40 88 90c0 51 -36 92 -89 92c-52 0 -87 -41 -87 -92c0 -50 36 -90 88 -90zM405 139c0 85 65 154 154 154
c91 0 157 -69 157 -154s-67 -152 -156 -152s-155 66 -155 152zM472 139c0 -51 36 -91 88 -91c54 0 88 40 88 91s-35 91 -89 91c-52 0 -87 -40 -87 -91zM767 139c0 85 66 154 154 154c92 0 158 -69 158 -154s-67 -152 -157 -152c-89 0 -155 66 -155 152zM834 139
c0 -51 37 -91 89 -91c53 0 88 40 88 91s-36 91 -90 91c-51 0 -87 -40 -87 -91z" />
    <glyph glyph-name="guilsinglleft" unicode="&#x2039;" horiz-adv-x="270" 
d="M158 109l-124 183l124 184h77l-124 -184l124 -183h-77z" />
    <glyph glyph-name="guilsinglright" unicode="&#x203a;" horiz-adv-x="270" 
d="M235 292l-124 -183h-77l124 183l-124 184h77z" />
    <glyph glyph-name="fraction" unicode="&#x2044;" horiz-adv-x="420" 
d="M52 -41h-73l389 782h73z" />
    <glyph glyph-name="Euro" unicode="&#x20ac;" horiz-adv-x="627" 
d="M28 249v61h52c-1 11 -2 24 -2 40s1 34 2 48h-52v61h64c40 146 163 254 320 254c82 0 136 -20 171 -43l-34 -66c-29 17 -73 34 -130 34c-116 0 -206 -73 -239 -179h277l-5 -61h-286c-2 -15 -3 -31 -3 -47c0 -14 1 -28 3 -41h279l-5 -61h-259c31 -103 116 -185 237 -185
c66 0 118 23 142 39l33 -65c-24 -20 -91 -51 -173 -51c-173 0 -292 118 -329 262h-63z" />
    <glyph glyph-name="trademark" unicode="&#x2122;" horiz-adv-x="729" 
d="M122 340v304h-93v56h246v-56h-93v-304h-60zM535 381h-58l-106 218v-259h-58v360h73l120 -250l121 250h72v-360h-57v259z" />
    <glyph glyph-name="minus" unicode="&#x2212;" horiz-adv-x="550" 
d="M40 278v67h470v-67h-470z" />
    <glyph glyph-name="quotedbl" unicode="&#x22;" horiz-adv-x="298" 
d="M54 502l-6 198h70l-6 -198h-58zM185 502l-5 198h70l-6 -198h-59z" />
    <glyph glyph-name="exclam" unicode="!" horiz-adv-x="258" 
d="M95 176l-7 524h83l-7 -524h-69zM73 43c0 31 26 56 57 56s56 -25 56 -56s-25 -56 -56 -56s-57 25 -57 56z" />
    <glyph glyph-name="dollar" unicode="$" horiz-adv-x="506" 
d="M34 141l69 30c19 -54 61 -109 153 -109c74 0 127 43 127 116c0 175 -328 130 -328 356c0 91 63 165 169 176v56h61v-55c104 -13 152 -89 168 -132l-68 -28c-16 35 -54 88 -131 88s-118 -47 -118 -105c0 -160 329 -127 329 -351c0 -101 -68 -182 -180 -194v-75h-61v75
c-116 11 -170 89 -190 152z" />
    <glyph glyph-name="ampersand" unicode="&#x26;" horiz-adv-x="627" 
d="M552 -7l-68 72c-45 -45 -116 -78 -204 -78c-152 0 -243 92 -243 207c0 88 53 149 123 189c-39 40 -76 86 -76 155c0 90 67 175 191 175c122 0 195 -72 195 -176c0 -87 -61 -146 -157 -200l166 -160c28 51 33 90 33 157h76c0 -81 -9 -145 -52 -213l73 -73zM280 59
c63 0 119 28 151 61l-219 211c-51 -22 -96 -67 -96 -133c0 -88 75 -139 164 -139zM159 535c0 -63 50 -108 103 -153c73 37 133 88 133 153c0 64 -47 111 -119 111c-69 0 -117 -47 -117 -111z" />
    <glyph glyph-name="cent" unicode="&#xa2;" horiz-adv-x="518" 
d="M272 0v66c-140 13 -238 126 -238 271s101 259 238 272v91h62v-92c78 -8 130 -50 148 -69l-26 -68c-21 22 -75 67 -154 67c-109 0 -186 -88 -186 -200c0 -113 81 -202 188 -202c82 0 134 48 154 69l25 -67c-18 -19 -70 -63 -149 -72v-66h-62z" />
    <glyph glyph-name="Oslash" unicode="&#xd8;" horiz-adv-x="791" 
d="M39 350c0 206 154 363 357 363c74 0 142 -22 197 -59l52 65l50 -40l-51 -65c68 -65 109 -158 109 -264c0 -206 -154 -363 -358 -363c-75 0 -143 21 -199 58l-51 -65l-50 40l51 65c-67 65 -107 158 -107 265zM123 350c0 -80 28 -150 75 -200l346 442
c-41 28 -93 45 -148 45c-156 0 -273 -123 -273 -287zM669 350c0 79 -29 149 -76 200l-348 -443c43 -29 94 -44 151 -44c154 0 273 121 273 287z" />
    <glyph glyph-name="oslash" unicode="&#xf8;" horiz-adv-x="610" 
d="M33 260c0 157 117 273 272 273c55 0 106 -15 148 -42l38 49l46 -37l-38 -48c49 -49 77 -117 77 -195c0 -156 -116 -273 -272 -273c-53 0 -102 13 -142 37l-38 -48l-46 36l37 47c-51 49 -82 119 -82 201zM114 260c0 -56 18 -104 50 -139l242 311c-29 18 -63 29 -102 29
c-112 0 -190 -87 -190 -201zM496 260c0 51 -17 97 -46 132l-241 -308c27 -17 59 -25 95 -25c112 0 192 85 192 201z" />
    <glyph glyph-name="section" unicode="&#xa7;" horiz-adv-x="477" 
d="M441 231c0 -66 -39 -116 -91 -137c42 -33 74 -76 74 -141c0 -97 -73 -166 -189 -166c-124 0 -176 78 -193 125l65 27c16 -35 52 -79 128 -79c71 0 108 37 108 94c0 51 -34 83 -83 112l-141 86c-41 24 -84 68 -84 137c0 65 39 115 91 136c-42 33 -74 76 -74 141
c0 97 73 167 189 167c124 0 176 -79 193 -126l-65 -27c-16 36 -52 80 -128 80c-71 0 -108 -37 -108 -95c0 -51 34 -83 83 -112l111 -65c61 -37 114 -86 114 -157zM366 229c0 44 -31 73 -75 98l-94 52c-50 -2 -87 -41 -87 -89c0 -37 21 -64 45 -78l124 -72c50 2 87 41 87 89z
" />
    <glyph glyph-name="oe" unicode="&#x153;" horiz-adv-x="1025" 
d="M33 260c0 157 117 273 272 273c102 0 185 -51 229 -130c41 82 122 130 212 130c154 0 248 -110 248 -266c0 -5 0 -20 -1 -24h-417c1 -118 79 -186 187 -186c87 0 136 46 161 81l53 -38c-30 -49 -97 -113 -215 -113c-104 0 -187 49 -228 130c-44 -79 -129 -130 -230 -130
c-156 0 -271 115 -271 273zM114 260c0 -117 79 -201 190 -201c112 0 192 85 192 201c0 115 -80 201 -192 201s-190 -87 -190 -201zM579 302h333c-5 108 -79 163 -166 163c-84 0 -158 -58 -167 -163z" />
    <glyph glyph-name="ae" unicode="&#xe6;" horiz-adv-x="899" 
d="M34 160c0 99 83 171 200 171c66 0 116 -25 137 -47v64c0 73 -49 115 -126 115c-64 0 -116 -23 -153 -45l-32 58c35 22 104 57 192 57c95 0 152 -40 175 -101c44 64 114 101 193 101c153 0 247 -110 247 -266v-24h-417c1 -116 78 -186 186 -186c88 0 137 46 162 81l52 -38
c-29 -49 -96 -113 -214 -113c-97 0 -177 39 -219 111c-22 -54 -81 -111 -185 -111c-114 0 -198 72 -198 173zM114 161c0 -60 51 -108 131 -108c76 0 127 45 127 108c0 65 -50 107 -128 107c-79 0 -130 -46 -130 -107zM453 302h333c-5 108 -80 163 -166 163
c-84 0 -158 -58 -167 -163z" />
    <glyph glyph-name="commaaccent" unicode="&#xf6c3;" horiz-adv-x="230" 
d="M63 -86c0 29 22 53 51 53c33 0 56 -24 56 -59c0 -64 -32 -111 -72 -145l-34 33c15 12 39 39 44 67c-28 4 -45 27 -45 51z" />
    <glyph glyph-name="aacute" unicode="&#xe1;" horiz-adv-x="510" 
d="M34 160c0 99 83 171 200 171c66 0 116 -25 137 -47v64c0 73 -49 115 -126 115c-64 0 -116 -23 -153 -45l-32 58c35 22 104 57 192 57c142 0 198 -79 198 -190v-343h-68l-9 44c-27 -31 -71 -57 -141 -57c-114 0 -198 72 -198 173zM114 161c0 -60 51 -108 131 -108
c76 0 129 45 129 108c0 65 -52 107 -130 107c-79 0 -130 -46 -130 -107zM207 583l71 142h87l-89 -142h-69z" />
    <glyph glyph-name="aring" unicode="&#xe5;" horiz-adv-x="510" 
d="M34 160c0 99 83 171 200 171c66 0 116 -25 137 -47v64c0 73 -49 115 -126 115c-64 0 -116 -23 -153 -45l-32 58c35 22 104 57 192 57c142 0 198 -79 198 -190v-343h-68l-9 44c-27 -31 -71 -57 -141 -57c-114 0 -198 72 -198 173zM114 161c0 -60 51 -108 131 -108
c76 0 129 45 129 108c0 65 -52 107 -130 107c-79 0 -130 -46 -130 -107zM166 664c0 51 38 87 89 87c54 0 91 -36 91 -86c0 -51 -38 -88 -90 -88s-90 37 -90 87zM215 664c0 -25 16 -42 41 -42c26 0 41 17 41 43c0 24 -15 41 -42 41c-24 0 -40 -17 -40 -42z" />
    <glyph glyph-name="atilde" unicode="&#xe3;" horiz-adv-x="510" 
d="M34 160c0 99 83 171 200 171c66 0 116 -25 137 -47v64c0 73 -49 115 -126 115c-64 0 -116 -23 -153 -45l-32 58c35 22 104 57 192 57c142 0 198 -79 198 -190v-343h-68l-9 44c-27 -31 -71 -57 -141 -57c-114 0 -198 72 -198 173zM114 161c0 -60 51 -108 131 -108
c76 0 129 45 129 108c0 65 -52 107 -130 107c-79 0 -130 -46 -130 -107zM317 601c-52 0 -87 45 -126 45c-22 0 -37 -17 -38 -44h-57c0 64 39 105 94 105c51 0 89 -44 125 -44c22 0 37 17 38 44h56c0 -64 -37 -106 -92 -106z" />
    <glyph glyph-name="adieresis" unicode="&#xe4;" horiz-adv-x="510" 
d="M34 160c0 99 83 171 200 171c66 0 116 -25 137 -47v64c0 73 -49 115 -126 115c-64 0 -116 -23 -153 -45l-32 58c35 22 104 57 192 57c142 0 198 -79 198 -190v-343h-68l-9 44c-27 -31 -71 -57 -141 -57c-114 0 -198 72 -198 173zM114 161c0 -60 51 -108 131 -108
c76 0 129 45 129 108c0 65 -52 107 -130 107c-79 0 -130 -46 -130 -107zM128 653c0 27 22 50 50 50c29 0 50 -23 50 -50c0 -28 -21 -50 -50 -50c-28 0 -50 22 -50 50zM292 653c0 27 21 50 50 50c28 0 50 -23 50 -50c0 -28 -22 -50 -50 -50c-29 0 -50 22 -50 50z" />
    <glyph glyph-name="acircumflex" unicode="&#xe2;" horiz-adv-x="510" 
d="M34 160c0 99 83 171 200 171c66 0 116 -25 137 -47v64c0 73 -49 115 -126 115c-64 0 -116 -23 -153 -45l-32 58c35 22 104 57 192 57c142 0 198 -79 198 -190v-343h-68l-9 44c-27 -31 -71 -57 -141 -57c-114 0 -198 72 -198 173zM114 161c0 -60 51 -108 131 -108
c76 0 129 45 129 108c0 65 -52 107 -130 107c-79 0 -130 -46 -130 -107zM316 594l-62 82l-61 -82h-75l94 130h84l94 -130h-74z" />
    <glyph glyph-name="agrave" unicode="&#xe0;" horiz-adv-x="510" 
d="M34 160c0 99 83 171 200 171c66 0 116 -25 137 -47v64c0 73 -49 115 -126 115c-64 0 -116 -23 -153 -45l-32 58c35 22 104 57 192 57c142 0 198 -79 198 -190v-343h-68l-9 44c-27 -31 -71 -57 -141 -57c-114 0 -198 72 -198 173zM114 161c0 -60 51 -108 131 -108
c76 0 129 45 129 108c0 65 -52 107 -130 107c-79 0 -130 -46 -130 -107zM232 725l72 -142h-70l-88 142h86z" />
    <glyph glyph-name="eacute" unicode="&#xe9;" horiz-adv-x="565" 
d="M34 258c0 166 114 275 252 275c153 0 247 -110 247 -266c0 -3 0 -14 -1 -24h-417c1 -116 79 -186 187 -186c88 0 137 46 162 81l52 -38c-29 -49 -97 -113 -215 -113c-158 0 -267 111 -267 271zM119 302h333c-5 108 -80 163 -166 163c-85 0 -161 -65 -167 -163zM236 583
l71 142h87l-89 -142h-69z" />
    <glyph glyph-name="egrave" unicode="&#xe8;" horiz-adv-x="565" 
d="M34 258c0 166 114 275 252 275c153 0 247 -110 247 -266c0 -3 0 -14 -1 -24h-417c1 -116 79 -186 187 -186c88 0 137 46 162 81l52 -38c-29 -49 -97 -113 -215 -113c-158 0 -267 111 -267 271zM119 302h333c-5 108 -80 163 -166 163c-85 0 -161 -65 -167 -163zM264 725
l72 -142h-70l-88 142h86z" />
    <glyph glyph-name="ecircumflex" unicode="&#xea;" horiz-adv-x="565" 
d="M34 258c0 166 114 275 252 275c153 0 247 -110 247 -266c0 -3 0 -14 -1 -24h-417c1 -116 79 -186 187 -186c88 0 137 46 162 81l52 -38c-29 -49 -97 -113 -215 -113c-158 0 -267 111 -267 271zM119 302h333c-5 108 -80 163 -166 163c-85 0 -161 -65 -167 -163zM349 594
l-62 82l-61 -82h-75l94 130h84l94 -130h-74z" />
    <glyph glyph-name="edieresis" unicode="&#xeb;" horiz-adv-x="565" 
d="M34 258c0 166 114 275 252 275c153 0 247 -110 247 -266c0 -3 0 -14 -1 -24h-417c1 -116 79 -186 187 -186c88 0 137 46 162 81l52 -38c-29 -49 -97 -113 -215 -113c-158 0 -267 111 -267 271zM119 302h333c-5 108 -80 163 -166 163c-85 0 -161 -65 -167 -163zM157 653
c0 27 22 50 50 50c29 0 50 -23 50 -50c0 -28 -21 -50 -50 -50c-28 0 -50 22 -50 50zM321 653c0 27 21 50 50 50c28 0 50 -23 50 -50c0 -28 -22 -50 -50 -50c-29 0 -50 22 -50 50z" />
    <glyph glyph-name="ntilde" unicode="&#xf1;" horiz-adv-x="548" 
d="M301 533c121 0 183 -90 183 -208v-325h-79v328c0 83 -52 133 -123 133c-80 0 -135 -59 -135 -145v-316h-79v520h78v-75c25 47 83 88 155 88zM340 601c-52 0 -87 45 -126 45c-22 0 -37 -17 -38 -44h-57c0 64 39 105 94 105c51 0 89 -44 125 -44c22 0 37 17 38 44h56
c0 -64 -37 -106 -92 -106z" />
    <glyph glyph-name="oacute" unicode="&#xf3;" horiz-adv-x="609" 
d="M114 260c0 -117 79 -201 190 -201c112 0 192 85 192 201c0 115 -80 201 -192 201s-190 -87 -190 -201zM33 260c0 157 117 273 272 273c157 0 271 -117 271 -273s-116 -273 -272 -273s-271 115 -271 273zM255 583l71 142h87l-89 -142h-69z" />
    <glyph glyph-name="otilde" unicode="&#xf5;" horiz-adv-x="609" 
d="M114 260c0 -117 79 -201 190 -201c112 0 192 85 192 201c0 115 -80 201 -192 201s-190 -87 -190 -201zM33 260c0 157 117 273 272 273c157 0 271 -117 271 -273s-116 -273 -272 -273s-271 115 -271 273zM372 601c-52 0 -87 45 -126 45c-22 0 -37 -17 -38 -44h-57
c0 64 39 105 94 105c51 0 89 -44 125 -44c22 0 37 17 38 44h56c0 -64 -37 -106 -92 -106z" />
    <glyph glyph-name="odieresis" unicode="&#xf6;" horiz-adv-x="609" 
d="M114 260c0 -117 79 -201 190 -201c112 0 192 85 192 201c0 115 -80 201 -192 201s-190 -87 -190 -201zM33 260c0 157 117 273 272 273c157 0 271 -117 271 -273s-116 -273 -272 -273s-271 115 -271 273zM176 653c0 27 22 50 50 50c29 0 50 -23 50 -50
c0 -28 -21 -50 -50 -50c-28 0 -50 22 -50 50zM340 653c0 27 21 50 50 50c28 0 50 -23 50 -50c0 -28 -22 -50 -50 -50c-29 0 -50 22 -50 50z" />
    <glyph glyph-name="ocircumflex" unicode="&#xf4;" horiz-adv-x="609" 
d="M114 260c0 -117 79 -201 190 -201c112 0 192 85 192 201c0 115 -80 201 -192 201s-190 -87 -190 -201zM33 260c0 157 117 273 272 273c157 0 271 -117 271 -273s-116 -273 -272 -273s-271 115 -271 273zM369 594l-62 82l-61 -82h-75l94 130h84l94 -130h-74z" />
    <glyph glyph-name="ograve" unicode="&#xf2;" horiz-adv-x="609" 
d="M114 260c0 -117 79 -201 190 -201c112 0 192 85 192 201c0 115 -80 201 -192 201s-190 -87 -190 -201zM33 260c0 157 117 273 272 273c157 0 271 -117 271 -273s-116 -273 -272 -273s-271 115 -271 273zM270 725l72 -142h-70l-88 142h86z" />
    <glyph glyph-name="uacute" unicode="&#xfa;" horiz-adv-x="543" 
d="M247 -13c-121 0 -184 90 -184 208v325h79v-328c0 -83 53 -133 123 -133c80 0 135 59 135 145v316h80v-520h-79v75c-24 -47 -83 -88 -154 -88zM225 583l71 142h87l-89 -142h-69z" />
    <glyph glyph-name="udieresis" unicode="&#xfc;" horiz-adv-x="543" 
d="M247 -13c-121 0 -184 90 -184 208v325h79v-328c0 -83 53 -133 123 -133c80 0 135 59 135 145v316h80v-520h-79v75c-24 -47 -83 -88 -154 -88zM145 653c0 27 22 50 50 50c29 0 50 -23 50 -50c0 -28 -21 -50 -50 -50c-28 0 -50 22 -50 50zM309 653c0 27 21 50 50 50
c28 0 50 -23 50 -50c0 -28 -22 -50 -50 -50c-29 0 -50 22 -50 50z" />
    <glyph glyph-name="ucircumflex" unicode="&#xfb;" horiz-adv-x="543" 
d="M247 -13c-121 0 -184 90 -184 208v325h79v-328c0 -83 53 -133 123 -133c80 0 135 59 135 145v316h80v-520h-79v75c-24 -47 -83 -88 -154 -88zM335 594l-62 82l-61 -82h-75l94 130h84l94 -130h-74z" />
    <glyph glyph-name="ugrave" unicode="&#xf9;" horiz-adv-x="543" 
d="M247 -13c-121 0 -184 90 -184 208v325h79v-328c0 -83 53 -133 123 -133c80 0 135 59 135 145v316h80v-520h-79v75c-24 -47 -83 -88 -154 -88zM256 725l72 -142h-70l-88 142h86z" />
    <glyph glyph-name="Adieresis" unicode="&#xc4;" horiz-adv-x="631" 
d="M452 227h-274l-84 -227h-82l262 700h82l262 -700h-82zM428 297l-113 314l-112 -314h225zM185 812c0 27 22 50 50 50c29 0 50 -23 50 -50c0 -28 -21 -50 -50 -50c-28 0 -50 22 -50 50zM349 812c0 27 21 50 50 50c28 0 50 -23 50 -50c0 -28 -22 -50 -50 -50
c-29 0 -50 22 -50 50z" />
    <glyph glyph-name="Odieresis" unicode="&#xd6;" horiz-adv-x="791" 
d="M38 350c0 206 154 363 357 363c204 0 357 -159 357 -363c0 -206 -154 -363 -358 -363c-203 0 -356 155 -356 363zM122 350c0 -166 118 -287 273 -287s273 121 273 287c0 164 -118 287 -273 287s-273 -123 -273 -287zM265 812c0 27 22 50 50 50c29 0 50 -23 50 -50
c0 -28 -21 -50 -50 -50c-28 0 -50 22 -50 50zM429 812c0 27 21 50 50 50c28 0 50 -23 50 -50c0 -28 -22 -50 -50 -50c-29 0 -50 22 -50 50z" />
    <glyph glyph-name="Udieresis" unicode="&#xdc;" horiz-adv-x="672" 
d="M336 -13c-168 0 -261 105 -261 264v449h81v-448c0 -116 62 -190 180 -190s181 74 181 191v447h80v-448c0 -158 -95 -265 -261 -265zM206 812c0 27 22 50 50 50c29 0 50 -23 50 -50c0 -28 -21 -50 -50 -50c-28 0 -50 22 -50 50zM370 812c0 27 21 50 50 50
c28 0 50 -23 50 -50c0 -28 -22 -50 -50 -50c-29 0 -50 22 -50 50z" />
    <glyph glyph-name="Edieresis" unicode="&#xcb;" horiz-adv-x="474" 
d="M79 0v700h332v-74h-251v-233h219v-73h-219v-247h262v-73h-343zM125 812c0 27 22 50 50 50c29 0 50 -23 50 -50c0 -28 -21 -50 -50 -50c-28 0 -50 22 -50 50zM289 812c0 27 21 50 50 50c28 0 50 -23 50 -50c0 -28 -22 -50 -50 -50c-29 0 -50 22 -50 50z" />
    <glyph glyph-name="Idieresis" unicode="&#xcf;" horiz-adv-x="239" 
d="M79 0v700h81v-700h-81zM-8 812c0 27 22 50 50 50c29 0 50 -23 50 -50c0 -28 -21 -50 -50 -50c-28 0 -50 22 -50 50zM156 812c0 27 21 50 50 50c28 0 50 -23 50 -50c0 -28 -22 -50 -50 -50c-29 0 -50 22 -50 50z" />
    <glyph glyph-name="Aring" unicode="&#xc5;" horiz-adv-x="631" 
d="M452 227h-274l-84 -227h-82l262 700h82l262 -700h-82zM428 297l-113 314l-112 -314h225zM225 827c0 51 38 87 89 87c54 0 91 -36 91 -86c0 -51 -38 -88 -90 -88s-90 37 -90 87zM274 827c0 -25 16 -42 41 -42c26 0 41 17 41 43c0 24 -15 41 -42 41c-24 0 -40 -17 -40 -42z
" />
    <glyph glyph-name="Eacute" unicode="&#xc9;" horiz-adv-x="474" 
d="M79 0v700h332v-74h-251v-233h219v-73h-219v-247h262v-73h-343zM204 744l71 142h87l-89 -142h-69z" />
    <glyph glyph-name="Aacute" unicode="&#xc1;" horiz-adv-x="631" 
d="M452 227h-274l-84 -227h-82l262 700h82l262 -700h-82zM428 297l-113 314l-112 -314h225zM276 744l71 142h87l-89 -142h-69z" />
    <glyph glyph-name="Uacute" unicode="&#xda;" horiz-adv-x="672" 
d="M336 -13c-168 0 -261 105 -261 264v449h81v-448c0 -116 62 -190 180 -190s181 74 181 191v447h80v-448c0 -158 -95 -265 -261 -265zM289 744l71 142h87l-89 -142h-69z" />
    <glyph glyph-name="Iacute" unicode="&#xcd;" horiz-adv-x="239" 
d="M79 0v700h81v-700h-81zM76 744l71 142h87l-89 -142h-69z" />
    <glyph glyph-name="Oacute" unicode="&#xd3;" horiz-adv-x="791" 
d="M38 350c0 206 154 363 357 363c204 0 357 -159 357 -363c0 -206 -154 -363 -358 -363c-203 0 -356 155 -356 363zM122 350c0 -166 118 -287 273 -287s273 121 273 287c0 164 -118 287 -273 287s-273 -123 -273 -287zM345 744l71 142h87l-89 -142h-69z" />
    <glyph glyph-name="ydieresis" unicode="&#xff;" horiz-adv-x="508" 
d="M222 -179h-79l75 184l-212 515h86l165 -418l160 418h84zM127 653c0 27 22 50 50 50c29 0 50 -23 50 -50c0 -28 -21 -50 -50 -50c-28 0 -50 22 -50 50zM291 653c0 27 21 50 50 50c28 0 50 -23 50 -50c0 -28 -22 -50 -50 -50c-29 0 -50 22 -50 50z" />
    <glyph glyph-name="Ydieresis" unicode="&#x178;" horiz-adv-x="532" 
d="M226 0v328l-217 372h93l164 -295l167 295h90l-217 -372v-328h-80zM137 828c0 27 22 50 50 50c29 0 50 -23 50 -50c0 -28 -21 -50 -50 -50c-28 0 -50 22 -50 50zM301 828c0 27 21 50 50 50c28 0 50 -23 50 -50c0 -28 -22 -50 -50 -50c-29 0 -50 22 -50 50z" />
    <glyph glyph-name="Agrave" unicode="&#xc0;" horiz-adv-x="631" 
d="M452 227h-274l-84 -227h-82l262 700h82l262 -700h-82zM428 297l-113 314l-112 -314h225zM278 886l72 -142h-70l-88 142h86z" />
    <glyph glyph-name="Ograve" unicode="&#xd2;" horiz-adv-x="791" 
d="M38 350c0 206 154 363 357 363c204 0 357 -159 357 -363c0 -206 -154 -363 -358 -363c-203 0 -356 155 -356 363zM122 350c0 -166 118 -287 273 -287s273 121 273 287c0 164 -118 287 -273 287s-273 -123 -273 -287zM364 886l72 -142h-70l-88 142h86z" />
    <glyph glyph-name="Igrave" unicode="&#xcc;" horiz-adv-x="239" 
d="M79 0v700h81v-700h-81zM92 886l72 -142h-70l-88 142h86z" />
    <glyph glyph-name="Egrave" unicode="&#xc8;" horiz-adv-x="474" 
d="M79 0v700h332v-74h-251v-233h219v-73h-219v-247h262v-73h-343zM231 886l72 -142h-70l-88 142h86z" />
    <glyph glyph-name="Ugrave" unicode="&#xd9;" horiz-adv-x="672" 
d="M336 -13c-168 0 -261 105 -261 264v449h81v-448c0 -116 62 -190 180 -190s181 74 181 191v447h80v-448c0 -158 -95 -265 -261 -265zM315 886l72 -142h-70l-88 142h86z" />
    <glyph glyph-name="Ntilde" unicode="&#xd1;" horiz-adv-x="704" 
d="M78 0v700h81l386 -557v557h80v-700h-80l-386 555v-555h-81zM419 758c-52 0 -87 45 -126 45c-22 0 -37 -17 -38 -44h-57c0 64 39 105 94 105c51 0 89 -44 125 -44c22 0 37 17 38 44h56c0 -64 -37 -106 -92 -106z" />
    <glyph glyph-name="Atilde" unicode="&#xc3;" horiz-adv-x="631" 
d="M452 227h-274l-84 -227h-82l262 700h82l262 -700h-82zM428 297l-113 314l-112 -314h225zM380 758c-52 0 -87 45 -126 45c-22 0 -37 -17 -38 -44h-57c0 64 39 105 94 105c51 0 89 -44 125 -44c22 0 37 17 38 44h56c0 -64 -37 -106 -92 -106z" />
    <glyph glyph-name="Otilde" unicode="&#xd5;" horiz-adv-x="791" 
d="M38 350c0 206 154 363 357 363c204 0 357 -159 357 -363c0 -206 -154 -363 -358 -363c-203 0 -356 155 -356 363zM122 350c0 -166 118 -287 273 -287s273 121 273 287c0 164 -118 287 -273 287s-273 -123 -273 -287zM462 758c-52 0 -87 45 -126 45c-22 0 -37 -17 -38 -44
h-57c0 64 39 105 94 105c51 0 89 -44 125 -44c22 0 37 17 38 44h56c0 -64 -37 -106 -92 -106z" />
    <glyph glyph-name="Acircumflex" unicode="&#xc2;" horiz-adv-x="631" 
d="M452 227h-274l-84 -227h-82l262 700h82l262 -700h-82zM428 297l-113 314l-112 -314h225zM377 749l-62 82l-61 -82h-75l94 130h84l94 -130h-74z" />
    <glyph glyph-name="Ecircumflex" unicode="&#xca;" horiz-adv-x="474" 
d="M79 0v700h332v-74h-251v-233h219v-73h-219v-247h262v-73h-343zM313 749l-62 82l-61 -82h-75l94 130h84l94 -130h-74z" />
    <glyph glyph-name="Icircumflex" unicode="&#xce;" horiz-adv-x="239" 
d="M79 0v700h81v-700h-81zM185 749l-62 82l-61 -82h-75l94 130h84l94 -130h-74z" />
    <glyph glyph-name="Ocircumflex" unicode="&#xd4;" horiz-adv-x="791" 
d="M38 350c0 206 154 363 357 363c204 0 357 -159 357 -363c0 -206 -154 -363 -358 -363c-203 0 -356 155 -356 363zM122 350c0 -166 118 -287 273 -287s273 121 273 287c0 164 -118 287 -273 287s-273 -123 -273 -287zM456 749l-62 82l-61 -82h-75l94 130h84l94 -130h-74z
" />
    <glyph glyph-name="Ucircumflex" unicode="&#xdb;" horiz-adv-x="672" 
d="M336 -13c-168 0 -261 105 -261 264v449h81v-448c0 -116 62 -190 180 -190s181 74 181 191v447h80v-448c0 -158 -95 -265 -261 -265zM398 749l-62 82l-61 -82h-75l94 130h84l94 -130h-74z" />
    <glyph glyph-name="Yacute" unicode="&#xdd;" horiz-adv-x="532" 
d="M226 0v328l-217 372h93l164 -295l167 295h90l-217 -372v-328h-80zM224 744l71 142h87l-89 -142h-69z" />
    <glyph glyph-name="Tcommaaccent" unicode="&#x162;" horiz-adv-x="511" 
d="M210 0v626h-189v74h458v-74h-188v-626h-21l-6 -47c50 -5 80 -39 80 -85c0 -67 -54 -93 -113 -93c-17 0 -39 4 -42 5l9 51s16 -3 30 -3c28 0 56 8 56 41c0 27 -23 41 -57 41c-10 0 -19 -2 -19 -2l12 92h-10z" />
    <glyph glyph-name="tcommaaccent" unicode="&#x163;" horiz-adv-x="295" 
d="M74 520v109h79v-109h114v-67h-114v-268c0 -97 28 -120 96 -120c10 0 22 1 22 1v-70s-21 -3 -48 -3c-9 0 -25 2 -25 2l-6 -42c50 -5 80 -39 80 -85c0 -67 -54 -93 -113 -93c-17 0 -39 4 -42 5l9 51s16 -3 30 -3c28 0 56 8 56 41c0 27 -23 41 -57 41c-10 0 -19 -2 -19 -2
l14 100c-52 26 -76 85 -76 170v275h-61v67h61z" />
    <glyph glyph-name="yacute" unicode="&#xfd;" horiz-adv-x="508" 
d="M222 -179h-79l75 184l-212 515h86l165 -418l160 418h84zM210 583l71 142h87l-89 -142h-69z" />
    <glyph glyph-name="Amacron" unicode="&#x100;" horiz-adv-x="631" 
d="M452 227h-274l-84 -227h-82l262 700h82l262 -700h-82zM428 297l-113 314l-112 -314h225zM194 765v63h242v-63h-242z" />
    <glyph glyph-name="amacron" unicode="&#x101;" horiz-adv-x="510" 
d="M34 160c0 99 83 171 200 171c66 0 116 -25 137 -47v64c0 73 -49 115 -126 115c-64 0 -116 -23 -153 -45l-32 58c35 22 104 57 192 57c142 0 198 -79 198 -190v-343h-68l-9 44c-27 -31 -71 -57 -141 -57c-114 0 -198 72 -198 173zM114 161c0 -60 51 -108 131 -108
c76 0 129 45 129 108c0 65 -52 107 -130 107c-79 0 -130 -46 -130 -107zM137 629v63h242v-63h-242z" />
    <glyph glyph-name="Abreve" unicode="&#x102;" horiz-adv-x="631" 
d="M452 227h-274l-84 -227h-82l262 700h82l262 -700h-82zM428 297l-113 314l-112 -314h225zM315 747c-84 0 -127 56 -127 126h63c0 -39 17 -71 64 -71c46 0 64 32 64 71h63c0 -70 -43 -126 -127 -126z" />
    <glyph glyph-name="abreve" unicode="&#x103;" horiz-adv-x="510" 
d="M34 160c0 99 83 171 200 171c66 0 116 -25 137 -47v64c0 73 -49 115 -126 115c-64 0 -116 -23 -153 -45l-32 58c35 22 104 57 192 57c142 0 198 -79 198 -190v-343h-68l-9 44c-27 -31 -71 -57 -141 -57c-114 0 -198 72 -198 173zM114 161c0 -60 51 -108 131 -108
c76 0 129 45 129 108c0 65 -52 107 -130 107c-79 0 -130 -46 -130 -107zM254 587c-84 0 -127 56 -127 126h63c0 -39 17 -71 64 -71c46 0 64 32 64 71h63c0 -70 -43 -126 -127 -126z" />
    <glyph glyph-name="scommaaccent" unicode="&#x219;" horiz-adv-x="417" 
d="M29 98l55 36c22 -41 59 -80 130 -80c52 0 96 30 96 83c0 120 -261 79 -261 255c0 88 73 141 167 141c97 0 147 -61 161 -100l-58 -33c-14 28 -41 67 -108 67c-48 0 -86 -27 -86 -72c0 -117 262 -73 262 -254c0 -92 -76 -154 -177 -154c-109 0 -158 62 -181 111zM162 -86
c0 29 22 53 51 53c33 0 56 -24 56 -59c0 -64 -32 -111 -72 -145l-34 33c15 12 39 39 44 67c-28 4 -45 27 -45 51z" />
    <glyph glyph-name="Scommaaccent" unicode="&#x218;" horiz-adv-x="506" 
d="M34 141l69 30c19 -54 61 -109 153 -109c74 0 127 43 127 116c0 175 -328 130 -328 356c0 100 76 179 200 179c125 0 181 -87 198 -134l-68 -28c-16 35 -54 88 -131 88s-118 -47 -118 -105c0 -160 329 -127 329 -351c0 -110 -81 -196 -212 -196c-136 0 -197 87 -219 154z
M202 -86c0 29 22 53 51 53c33 0 56 -24 56 -59c0 -64 -32 -111 -72 -145l-34 33c15 12 39 39 44 67c-28 4 -45 27 -45 51z" />
    <glyph glyph-name="Cacute" unicode="&#x106;" horiz-adv-x="656" 
d="M595 138l25 -71c-27 -24 -108 -80 -226 -80c-205 0 -355 156 -355 363c0 206 155 363 353 363c105 0 180 -43 217 -73l-26 -72c-27 22 -96 69 -189 69c-155 0 -271 -124 -271 -287s111 -287 273 -287c106 0 175 55 199 75zM325 744l71 142h87l-89 -142h-69z" />
    <glyph glyph-name="zcaron" unicode="&#x17e;" horiz-adv-x="462" 
d="M32 0v56l298 396h-289v68h382v-57l-297 -396h302v-67h-396zM232 642l62 82h74l-94 -130h-84l-94 130h75z" />
    <glyph glyph-name="Zcaron" unicode="&#x17d;" horiz-adv-x="594" 
d="M35 0v59l412 568h-399v73h504v-60l-413 -567h415v-73h-519zM296 797l62 82h74l-94 -130h-84l-94 130h75z" />
    <glyph glyph-name="cacute" unicode="&#x107;" horiz-adv-x="512" 
d="M482 462l-27 -68c-21 22 -75 66 -154 66c-109 0 -186 -87 -186 -200c0 -112 81 -201 188 -201c82 0 134 48 155 69l24 -67c-21 -22 -85 -74 -182 -74c-155 0 -267 119 -267 273s115 273 266 273c95 0 156 -45 183 -71zM246 583l71 142h87l-89 -142h-69z" />
    <glyph glyph-name="Ccircumflex" unicode="&#x108;" horiz-adv-x="656" 
d="M595 138l25 -71c-27 -24 -108 -80 -226 -80c-205 0 -355 156 -355 363c0 206 155 363 353 363c105 0 180 -43 217 -73l-26 -72c-27 22 -96 69 -189 69c-155 0 -271 -124 -271 -287s111 -287 273 -287c106 0 175 55 199 75zM456 749l-62 82l-61 -82h-75l94 130h84l94 -130
h-74z" />
    <glyph glyph-name="ccircumflex" unicode="&#x109;" horiz-adv-x="512" 
d="M482 462l-27 -68c-21 22 -75 66 -154 66c-109 0 -186 -87 -186 -200c0 -112 81 -201 188 -201c82 0 134 48 155 69l24 -67c-21 -22 -85 -74 -182 -74c-155 0 -267 119 -267 273s115 273 266 273c95 0 156 -45 183 -71zM362 594l-62 82l-61 -82h-75l94 130h84l94 -130h-74
z" />
    <glyph glyph-name="dcaron" unicode="&#x10f;" horiz-adv-x="615" 
d="M594 553l7 170h82l-29 -170h-60zM544 723v-723h-77v82c-13 -19 -67 -95 -180 -95c-149 0 -254 113 -254 272c0 160 100 274 248 274c108 0 168 -70 183 -97v287h80zM467 258c0 129 -80 203 -177 203c-102 0 -176 -84 -176 -203c0 -121 77 -200 177 -200
c109 0 176 91 176 200z" />
    <glyph glyph-name="Cdotaccent" unicode="&#x10a;" horiz-adv-x="656" 
d="M595 138l25 -71c-27 -24 -108 -80 -226 -80c-205 0 -355 156 -355 363c0 206 155 363 353 363c105 0 180 -43 217 -73l-26 -72c-27 22 -96 69 -189 69c-155 0 -271 -124 -271 -287s111 -287 273 -287c106 0 175 55 199 75zM340 810c0 30 24 54 54 54c31 0 55 -24 55 -54
c0 -31 -24 -55 -55 -55c-30 0 -54 24 -54 55z" />
    <glyph glyph-name="cdotaccent" unicode="&#x10b;" horiz-adv-x="512" 
d="M482 462l-27 -68c-21 22 -75 66 -154 66c-109 0 -186 -87 -186 -200c0 -112 81 -201 188 -201c82 0 134 48 155 69l24 -67c-21 -22 -85 -74 -182 -74c-155 0 -267 119 -267 273s115 273 266 273c95 0 156 -45 183 -71zM246 654c0 30 24 54 54 54c31 0 55 -24 55 -54
c0 -31 -24 -55 -55 -55c-30 0 -54 24 -54 55z" />
    <glyph glyph-name="zdotaccent" unicode="&#x17c;" horiz-adv-x="462" 
d="M32 0v56l298 396h-289v68h382v-57l-297 -396h302v-67h-396zM178 654c0 30 24 54 54 54c31 0 55 -24 55 -54c0 -31 -24 -55 -55 -55c-30 0 -54 24 -54 55z" />
    <glyph glyph-name="Ccaron" unicode="&#x10c;" horiz-adv-x="656" 
d="M595 138l25 -71c-27 -24 -108 -80 -226 -80c-205 0 -355 156 -355 363c0 206 155 363 353 363c105 0 180 -43 217 -73l-26 -72c-27 22 -96 69 -189 69c-155 0 -271 -124 -271 -287s111 -287 273 -287c106 0 175 55 199 75zM391 797l62 82h74l-94 -130h-84l-94 130h75z
" />
    <glyph glyph-name="ccaron" unicode="&#x10d;" horiz-adv-x="512" 
d="M482 462l-27 -68c-21 22 -75 66 -154 66c-109 0 -186 -87 -186 -200c0 -112 81 -201 188 -201c82 0 134 48 155 69l24 -67c-21 -22 -85 -74 -182 -74c-155 0 -267 119 -267 273s115 273 266 273c95 0 156 -45 183 -71zM294 642l62 82h74l-94 -130h-84l-94 130h75z" />
    <glyph glyph-name="Dcaron" unicode="&#x10e;" horiz-adv-x="637" 
d="M79 0v700h144c239 0 375 -131 375 -350c0 -232 -141 -350 -375 -350h-144zM160 72h79c168 0 276 95 276 278c0 175 -108 277 -276 277h-79v-555zM272 797l62 82h74l-94 -130h-84l-94 130h75z" />
    <glyph glyph-name="dcroat" unicode="&#x111;" horiz-adv-x="612" 
d="M544 585v-585h-77v82c-13 -19 -67 -95 -180 -95c-149 0 -254 113 -254 272c0 160 100 274 248 274c108 0 168 -70 183 -97v149h-129v59h129v79h80v-79h66v-59h-66zM467 258c0 129 -80 203 -177 203c-102 0 -176 -84 -176 -203c0 -121 77 -200 177 -200
c109 0 176 91 176 200z" />
    <glyph glyph-name="Emacron" unicode="&#x112;" horiz-adv-x="474" 
d="M79 0v700h332v-74h-251v-233h219v-73h-219v-247h262v-73h-343zM132 765v63h242v-63h-242z" />
    <glyph glyph-name="emacron" unicode="&#x113;" horiz-adv-x="565" 
d="M34 258c0 166 114 275 252 275c153 0 247 -110 247 -266c0 -3 0 -14 -1 -24h-417c1 -116 79 -186 187 -186c88 0 137 46 162 81l52 -38c-29 -49 -97 -113 -215 -113c-158 0 -267 111 -267 271zM119 302h333c-5 108 -80 163 -166 163c-85 0 -161 -65 -167 -163zM169 629
v63h242v-63h-242z" />
    <glyph glyph-name="Ebreve" unicode="&#x114;" horiz-adv-x="474" 
d="M79 0v700h332v-74h-251v-233h219v-73h-219v-247h262v-73h-343zM248 747c-84 0 -127 56 -127 126h63c0 -39 17 -71 64 -71c46 0 64 32 64 71h63c0 -70 -43 -126 -127 -126z" />
    <glyph glyph-name="ebreve" unicode="&#x115;" horiz-adv-x="565" 
d="M34 258c0 166 114 275 252 275c153 0 247 -110 247 -266c0 -3 0 -14 -1 -24h-417c1 -116 79 -186 187 -186c88 0 137 46 162 81l52 -38c-29 -49 -97 -113 -215 -113c-158 0 -267 111 -267 271zM119 302h333c-5 108 -80 163 -166 163c-85 0 -161 -65 -167 -163zM286 587
c-84 0 -127 56 -127 126h63c0 -39 17 -71 64 -71c46 0 64 32 64 71h63c0 -70 -43 -126 -127 -126z" />
    <glyph glyph-name="Edotaccent" unicode="&#x116;" horiz-adv-x="474" 
d="M79 0v700h332v-74h-251v-233h219v-73h-219v-247h262v-73h-343zM207 810c0 30 24 54 54 54c31 0 55 -24 55 -54c0 -31 -24 -55 -55 -55c-30 0 -54 24 -54 55z" />
    <glyph glyph-name="edotaccent" unicode="&#x117;" horiz-adv-x="565" 
d="M34 258c0 166 114 275 252 275c153 0 247 -110 247 -266c0 -3 0 -14 -1 -24h-417c1 -116 79 -186 187 -186c88 0 137 46 162 81l52 -38c-29 -49 -97 -113 -215 -113c-158 0 -267 111 -267 271zM119 302h333c-5 108 -80 163 -166 163c-85 0 -161 -65 -167 -163zM235 654
c0 30 24 54 54 54c31 0 55 -24 55 -54c0 -31 -24 -55 -55 -55c-30 0 -54 24 -54 55z" />
    <glyph glyph-name="Ecaron" unicode="&#x11a;" horiz-adv-x="474" 
d="M79 0v700h332v-74h-251v-233h219v-73h-219v-247h262v-73h-343zM260 797l62 82h74l-94 -130h-84l-94 130h75z" />
    <glyph glyph-name="ecaron" unicode="&#x11b;" horiz-adv-x="565" 
d="M34 258c0 166 114 275 252 275c153 0 247 -110 247 -266c0 -3 0 -14 -1 -24h-417c1 -116 79 -186 187 -186c88 0 137 46 162 81l52 -38c-29 -49 -97 -113 -215 -113c-158 0 -267 111 -267 271zM119 302h333c-5 108 -80 163 -166 163c-85 0 -161 -65 -167 -163zM287 642
l62 82h74l-94 -130h-84l-94 130h75z" />
    <glyph glyph-name="Gcircumflex" unicode="&#x11c;" horiz-adv-x="736" 
d="M393 713c139 0 222 -65 258 -102l-52 -54c-32 31 -94 80 -204 80c-161 0 -271 -124 -271 -288c0 -169 114 -287 270 -287c117 0 183 51 205 73v147h-156v71h234v-253c-76 -77 -167 -113 -286 -113c-199 0 -352 149 -352 362c0 205 149 364 354 364zM458 749l-62 82
l-61 -82h-75l94 130h84l94 -130h-74z" />
    <glyph glyph-name="gcircumflex" unicode="&#x11d;" horiz-adv-x="607" 
d="M96 -140l28 62c20 -12 82 -43 157 -43c99 0 183 41 183 157v46c-12 -19 -66 -95 -180 -95c-149 0 -251 113 -251 272c0 160 103 274 250 274c108 0 167 -69 184 -97v84h76v-448c0 -197 -111 -264 -261 -264c-68 0 -141 24 -186 52zM467 259c0 126 -79 202 -178 202
c-101 0 -176 -83 -176 -202c0 -121 78 -200 178 -200c107 0 176 88 176 200zM364 594l-62 82l-61 -82h-75l94 130h84l94 -130h-74z" />
    <glyph glyph-name="Zdotaccent" unicode="&#x17b;" horiz-adv-x="594" 
d="M35 0v59l412 568h-399v73h504v-60l-413 -567h415v-73h-519zM244 810c0 30 24 54 54 54c31 0 55 -24 55 -54c0 -31 -24 -55 -55 -55c-30 0 -54 24 -54 55z" />
    <glyph glyph-name="zacute" unicode="&#x17a;" horiz-adv-x="462" 
d="M32 0v56l298 396h-289v68h382v-57l-297 -396h302v-67h-396zM175 583l71 142h87l-89 -142h-69z" />
    <glyph glyph-name="Gbreve" unicode="&#x11e;" horiz-adv-x="736" 
d="M393 713c139 0 222 -65 258 -102l-52 -54c-32 31 -94 80 -204 80c-161 0 -271 -124 -271 -288c0 -169 114 -287 270 -287c117 0 183 51 205 73v147h-156v71h234v-253c-76 -77 -167 -113 -286 -113c-199 0 -352 149 -352 362c0 205 149 364 354 364zM389 747
c-84 0 -127 56 -127 126h63c0 -39 17 -71 64 -71c46 0 64 32 64 71h63c0 -70 -43 -126 -127 -126z" />
    <glyph glyph-name="gbreve" unicode="&#x11f;" horiz-adv-x="607" 
d="M96 -140l28 62c20 -12 82 -43 157 -43c99 0 183 41 183 157v46c-12 -19 -66 -95 -180 -95c-149 0 -251 113 -251 272c0 160 103 274 250 274c108 0 167 -69 184 -97v84h76v-448c0 -197 -111 -264 -261 -264c-68 0 -141 24 -186 52zM467 259c0 126 -79 202 -178 202
c-101 0 -176 -83 -176 -202c0 -121 78 -200 178 -200c107 0 176 88 176 200zM302 587c-84 0 -127 56 -127 126h63c0 -39 17 -71 64 -71c46 0 64 32 64 71h63c0 -70 -43 -126 -127 -126z" />
    <glyph glyph-name="Zacute" unicode="&#x179;" horiz-adv-x="594" 
d="M35 0v59l412 568h-399v73h504v-60l-413 -567h415v-73h-519zM251 744l71 142h87l-89 -142h-69z" />
    <glyph glyph-name="ycircumflex" unicode="&#x177;" horiz-adv-x="508" 
d="M222 -179h-79l75 184l-212 515h86l165 -418l160 418h84zM320 594l-62 82l-61 -82h-75l94 130h84l94 -130h-74z" />
    <glyph glyph-name="Ycircumflex" unicode="&#x176;" horiz-adv-x="532" 
d="M226 0v328l-217 372h93l164 -295l167 295h90l-217 -372v-328h-80zM329 749l-62 82l-61 -82h-75l94 130h84l94 -130h-74z" />
    <glyph glyph-name="wcircumflex" unicode="&#x175;" horiz-adv-x="816" 
d="M546 0l-138 413l-139 -413h-87l-175 520h86l136 -428s1 2 140 428h78c138 -426 139 -428 139 -428l137 428h86l-176 -520h-87zM470 594l-62 82l-61 -82h-75l94 130h84l94 -130h-74z" />
    <glyph glyph-name="Gdotaccent" unicode="&#x120;" horiz-adv-x="736" 
d="M393 713c139 0 222 -65 258 -102l-52 -54c-32 31 -94 80 -204 80c-161 0 -271 -124 -271 -288c0 -169 114 -287 270 -287c117 0 183 51 205 73v147h-156v71h234v-253c-76 -77 -167 -113 -286 -113c-199 0 -352 149 -352 362c0 205 149 364 354 364zM341 810
c0 30 24 54 54 54c31 0 55 -24 55 -54c0 -31 -24 -55 -55 -55c-30 0 -54 24 -54 55z" />
    <glyph glyph-name="gdotaccent" unicode="&#x121;" horiz-adv-x="607" 
d="M96 -140l28 62c20 -12 82 -43 157 -43c99 0 183 41 183 157v46c-12 -19 -66 -95 -180 -95c-149 0 -251 113 -251 272c0 160 103 274 250 274c108 0 167 -69 184 -97v84h76v-448c0 -197 -111 -264 -261 -264c-68 0 -141 24 -186 52zM467 259c0 126 -79 202 -178 202
c-101 0 -176 -83 -176 -202c0 -121 78 -200 178 -200c107 0 176 88 176 200zM248 654c0 30 24 54 54 54c31 0 55 -24 55 -54c0 -31 -24 -55 -55 -55c-30 0 -54 24 -54 55z" />
    <glyph glyph-name="Gcommaaccent" unicode="&#x122;" horiz-adv-x="736" 
d="M393 713c139 0 222 -65 258 -102l-52 -54c-32 31 -94 80 -204 80c-161 0 -271 -124 -271 -288c0 -169 114 -287 270 -287c117 0 183 51 205 73v147h-156v71h234v-253c-76 -77 -167 -113 -286 -113c-199 0 -352 149 -352 362c0 205 149 364 354 364zM347 -86
c0 29 22 53 51 53c33 0 56 -24 56 -59c0 -64 -32 -111 -72 -145l-34 33c15 12 39 39 44 67c-28 4 -45 27 -45 51z" />
    <glyph glyph-name="Hcircumflex" unicode="&#x124;" horiz-adv-x="692" 
d="M79 0v700h81v-307h372v307h81v-700h-81v319h-372v-319h-81zM412 749l-62 82l-61 -82h-75l94 130h84l94 -130h-74z" />
    <glyph glyph-name="hcircumflex" unicode="&#x125;" horiz-adv-x="548" 
d="M301 533c121 0 184 -90 184 -208v-325h-79v328c0 83 -53 133 -123 133c-80 0 -136 -59 -136 -145v-316h-79v723h79v-278c25 47 83 88 154 88zM339 749l-62 82l-61 -82h-75l94 130h84l94 -130h-74z" />
    <glyph glyph-name="Hbar" unicode="&#x126;" horiz-adv-x="692" 
d="M79 0v515h-61v63h61v122h81v-122h372v122h81v-122h61v-63h-61v-515h-81v319h-372v-319h-81zM160 393h372v122h-372v-122z" />
    <glyph glyph-name="hbar" unicode="&#x127;" horiz-adv-x="548" 
d="M301 533c121 0 184 -90 184 -208v-325h-79v328c0 83 -53 133 -123 133c-80 0 -136 -59 -136 -145v-316h-79v587h-63v59h63v77h79v-77h129v-59h-129v-142c25 47 83 88 154 88z" />
    <glyph glyph-name="Wcircumflex" unicode="&#x174;" horiz-adv-x="943" 
d="M641 0l-170 581l-170 -581h-90l-200 700h87l161 -597l172 597h80l172 -597l162 597h86l-199 -700h-91zM534 749l-62 82l-61 -82h-75l94 130h84l94 -130h-74z" />
    <glyph glyph-name="uhungarumlaut" unicode="&#x171;" horiz-adv-x="543" 
d="M247 -13c-121 0 -184 90 -184 208v325h79v-328c0 -83 53 -133 123 -133c80 0 135 59 135 145v316h80v-520h-79v75c-24 -47 -83 -88 -154 -88zM292 583l71 142h83l-89 -142h-65zM166 583l71 142h83l-89 -142h-65z" />
    <glyph glyph-name="Uhungarumlaut" unicode="&#x170;" horiz-adv-x="675" 
d="M336 -13c-168 0 -261 105 -261 264v449h81v-448c0 -116 62 -190 180 -190s181 74 181 191v447h80v-448c0 -158 -95 -265 -261 -265zM355 744l71 142h83l-89 -142h-65zM229 744l71 142h83l-89 -142h-65z" />
    <glyph glyph-name="Tcaron" unicode="&#x164;" horiz-adv-x="511" 
d="M210 0v626h-189v74h458v-74h-188v-626h-81zM252 797l62 82h74l-94 -130h-84l-94 130h75z" />
    <glyph glyph-name="uring" unicode="&#x16f;" horiz-adv-x="543" 
d="M247 -13c-121 0 -184 90 -184 208v325h79v-328c0 -83 53 -133 123 -133c80 0 135 59 135 145v316h80v-520h-79v75c-24 -47 -83 -88 -154 -88zM185 664c0 51 38 87 89 87c54 0 91 -36 91 -86c0 -51 -38 -88 -90 -88s-90 37 -90 87zM234 664c0 -25 16 -42 41 -42
c26 0 41 17 41 43c0 24 -15 41 -42 41c-24 0 -40 -17 -40 -42z" />
    <glyph glyph-name="tcaron" unicode="&#x165;" horiz-adv-x="295" 
d="M205 557l7 166h82l-29 -166h-60zM74 520v109h79v-109h114v-67h-114v-268c0 -97 28 -120 96 -120c10 0 22 1 22 1v-70s-21 -3 -48 -3c-104 0 -149 68 -149 185v275h-61v67h61z" />
    <glyph glyph-name="Uring" unicode="&#x16e;" horiz-adv-x="672" 
d="M336 -13c-168 0 -261 105 -261 264v449h81v-448c0 -116 62 -190 180 -190s181 74 181 191v447h80v-448c0 -158 -95 -265 -261 -265zM252 827c0 51 38 87 89 87c54 0 91 -36 91 -86c0 -51 -38 -88 -90 -88s-90 37 -90 87zM301 827c0 -25 16 -42 41 -42c26 0 41 17 41 43
c0 24 -15 41 -42 41c-24 0 -40 -17 -40 -42z" />
    <glyph glyph-name="ubreve" unicode="&#x16d;" horiz-adv-x="543" 
d="M247 -13c-121 0 -184 90 -184 208v325h79v-328c0 -83 53 -133 123 -133c80 0 135 59 135 145v316h80v-520h-79v75c-24 -47 -83 -88 -154 -88zM274 587c-84 0 -127 56 -127 126h63c0 -39 17 -71 64 -71c46 0 64 32 64 71h63c0 -70 -43 -126 -127 -126z" />
    <glyph glyph-name="Ubreve" unicode="&#x16c;" horiz-adv-x="672" 
d="M336 -13c-168 0 -261 105 -261 264v449h81v-448c0 -116 62 -190 180 -190s181 74 181 191v447h80v-448c0 -158 -95 -265 -261 -265zM341 747c-84 0 -127 56 -127 126h63c0 -39 17 -71 64 -71c46 0 64 32 64 71h63c0 -70 -43 -126 -127 -126z" />
    <glyph glyph-name="umacron" unicode="&#x16b;" horiz-adv-x="543" 
d="M247 -13c-121 0 -184 90 -184 208v325h79v-328c0 -83 53 -133 123 -133c80 0 135 59 135 145v316h80v-520h-79v75c-24 -47 -83 -88 -154 -88zM155 629v63h242v-63h-242z" />
    <glyph glyph-name="Umacron" unicode="&#x16a;" horiz-adv-x="675" 
d="M336 -13c-168 0 -261 105 -261 264v449h81v-448c0 -116 62 -190 180 -190s181 74 181 191v447h80v-448c0 -158 -95 -265 -261 -265zM224 765v63h242v-63h-242z" />
    <glyph glyph-name="utilde" unicode="&#x169;" horiz-adv-x="543" 
d="M247 -13c-121 0 -184 90 -184 208v325h79v-328c0 -83 53 -133 123 -133c80 0 135 59 135 145v316h80v-520h-79v75c-24 -47 -83 -88 -154 -88zM339 601c-52 0 -87 45 -126 45c-22 0 -37 -17 -38 -44h-57c0 64 39 105 94 105c51 0 89 -44 125 -44c22 0 37 17 38 44h56
c0 -64 -37 -106 -92 -106z" />
    <glyph glyph-name="Utilde" unicode="&#x168;" horiz-adv-x="672" 
d="M336 -13c-168 0 -261 105 -261 264v449h81v-448c0 -116 62 -190 180 -190s181 74 181 191v447h80v-448c0 -158 -95 -265 -261 -265zM410 758c-52 0 -87 45 -126 45c-22 0 -37 -17 -38 -44h-57c0 64 39 105 94 105c51 0 89 -44 125 -44c22 0 37 17 38 44h56
c0 -64 -37 -106 -92 -106z" />
    <glyph glyph-name="tbar" unicode="&#x167;" horiz-adv-x="295" 
d="M74 178v101h-61v60h61v114h-61v67h61v109h79v-109h114v-67h-114v-114h111v-60h-111v-102c0 -89 30 -112 96 -112c10 0 22 1 22 1v-70s-21 -3 -48 -3c-104 0 -149 68 -149 185z" />
    <glyph glyph-name="Tbar" unicode="&#x166;" horiz-adv-x="511" 
d="M84 342v65h126v219h-189v74h458v-74h-188v-219h139v-65h-139v-342h-81v342h-126z" />
    <glyph glyph-name="scaron" unicode="&#x161;" horiz-adv-x="417" 
d="M29 98l55 36c22 -41 59 -80 130 -80c52 0 96 30 96 83c0 120 -261 79 -261 255c0 88 73 141 167 141c97 0 147 -61 161 -100l-58 -33c-14 28 -41 67 -108 67c-48 0 -86 -27 -86 -72c0 -117 262 -73 262 -254c0 -92 -76 -154 -177 -154c-109 0 -158 62 -181 111zM216 642
l62 82h74l-94 -130h-84l-94 130h75z" />
    <glyph glyph-name="Scaron" unicode="&#x160;" horiz-adv-x="506" 
d="M34 141l69 30c19 -54 61 -109 153 -109c74 0 127 43 127 116c0 175 -328 130 -328 356c0 100 76 179 200 179c125 0 181 -87 198 -134l-68 -28c-16 35 -54 88 -131 88s-118 -47 -118 -105c0 -160 329 -127 329 -351c0 -110 -81 -196 -212 -196c-136 0 -197 87 -219 154z
M251 797l62 82h74l-94 -130h-84l-94 130h75z" />
    <glyph glyph-name="Itilde" unicode="&#x128;" horiz-adv-x="239" 
d="M79 0v700h81v-700h-81zM185 758c-52 0 -87 45 -126 45c-22 0 -37 -17 -38 -44h-57c0 64 39 105 94 105c51 0 89 -44 125 -44c22 0 37 17 38 44h56c0 -64 -37 -106 -92 -106z" />
    <glyph glyph-name="Imacron" unicode="&#x12a;" horiz-adv-x="239" 
d="M79 0v700h81v-700h-81zM1 765v63h242v-63h-242z" />
    <glyph glyph-name="Kcommaaccent" unicode="&#x136;" horiz-adv-x="565" 
d="M79 0v700h81v-322l279 322h98l-294 -335l306 -365h-99l-290 352v-352h-81zM247 -86c0 29 22 53 51 53c33 0 56 -24 56 -59c0 -64 -32 -111 -72 -145l-34 33c15 12 39 39 44 67c-28 4 -45 27 -45 51z" />
    <glyph glyph-name="kgreenlandic" unicode="&#x138;" horiz-adv-x="478" 
d="M68 0v520h79v-229l212 229h100l-224 -239l237 -281h-102l-223 271v-271h-79z" />
    <glyph glyph-name="kcommaaccent" unicode="&#x137;" horiz-adv-x="478" 
d="M68 0v723h79v-426l212 223h100l-224 -233l237 -287h-102l-223 277v-277h-79zM202 -86c0 29 22 53 51 53c33 0 56 -24 56 -59c0 -64 -32 -111 -72 -145l-34 33c15 12 39 39 44 67c-28 4 -45 27 -45 51z" />
    <glyph glyph-name="Ibreve" unicode="&#x12c;" horiz-adv-x="239" 
d="M79 0v700h81v-700h-81zM121 747c-84 0 -127 56 -127 126h63c0 -39 17 -71 64 -71c46 0 64 32 64 71h63c0 -70 -43 -126 -127 -126z" />
    <glyph glyph-name="dotlessj" unicode="&#x237;" 
d="M68 -15v535h79v-537c0 -132 -73 -174 -162 -174c-13 0 -27 2 -27 2v68s13 -1 22 -1c58 0 88 33 88 107z" />
    <glyph glyph-name="jcircumflex" unicode="&#x135;" 
d="M68 -15v535h79v-537c0 -132 -73 -174 -162 -174c-13 0 -27 2 -27 2v68s13 -1 22 -1c58 0 88 33 88 107zM170 594l-62 82l-61 -82h-75l94 130h84l94 -130h-74z" />
    <glyph glyph-name="Jcircumflex" unicode="&#x134;" horiz-adv-x="345" 
d="M22 4l9 72s33 -9 66 -9c55 0 88 31 88 102v531h81v-542c0 -108 -61 -164 -160 -164c-42 0 -75 7 -84 10zM284 749l-62 82l-61 -82h-75l94 130h84l94 -130h-74z" />
    <glyph glyph-name="ij" unicode="&#x133;" horiz-adv-x="431" 
d="M68 0v520h79v-520h-79zM53 654c0 30 24 54 54 54c31 0 55 -24 55 -54c0 -31 -24 -55 -55 -55c-30 0 -54 24 -54 55zM283 -15v535h79v-537c0 -132 -73 -174 -162 -174c-13 0 -27 2 -27 2v68s13 -1 22 -1c58 0 88 33 88 107zM268 654c0 30 24 54 54 54c31 0 55 -24 55 -54
c0 -31 -24 -55 -55 -55c-30 0 -54 24 -54 55z" />
    <glyph glyph-name="IJ" unicode="&#x132;" horiz-adv-x="585" 
d="M79 0v700h81v-700h-81zM261 4l9 72s33 -9 66 -9c55 0 88 31 88 102v531h81v-542c0 -108 -61 -164 -160 -164c-42 0 -75 7 -84 10z" />
    <glyph glyph-name="Idotaccent" unicode="&#x130;" horiz-adv-x="239" 
d="M79 0v700h81v-700h-81zM67 810c0 30 24 54 54 54c31 0 55 -24 55 -54c0 -31 -24 -55 -55 -55c-30 0 -54 24 -54 55z" />
    <glyph glyph-name="Rcommaaccent" unicode="&#x156;" horiz-adv-x="547" 
d="M79 0v700h178c143 0 218 -72 218 -194c0 -83 -41 -159 -122 -185l174 -321h-90l-158 304h-119v-304h-81zM160 375h97c82 0 133 38 133 130c0 74 -39 123 -138 123h-92v-253zM225 -86c0 29 22 53 51 53c33 0 56 -24 56 -59c0 -64 -32 -111 -72 -145l-34 33
c15 12 39 39 44 67c-28 4 -45 27 -45 51z" />
    <glyph glyph-name="rcommaaccent" unicode="&#x157;" horiz-adv-x="321" 
d="M301 533v-79c-119 0 -154 -94 -154 -205v-249h-79v520h78v-87c18 52 76 100 155 100zM77 -86c0 29 22 53 51 53c33 0 56 -24 56 -59c0 -64 -32 -111 -72 -145l-34 33c15 12 39 39 44 67c-28 4 -45 27 -45 51z" />
    <glyph glyph-name="scircumflex" unicode="&#x15d;" horiz-adv-x="417" 
d="M29 98l55 36c22 -41 59 -80 130 -80c52 0 96 30 96 83c0 120 -261 79 -261 255c0 88 73 141 167 141c97 0 147 -61 161 -100l-58 -33c-14 28 -41 67 -108 67c-48 0 -86 -27 -86 -72c0 -117 262 -73 262 -254c0 -92 -76 -154 -177 -154c-109 0 -158 62 -181 111zM279 594
l-62 82l-61 -82h-75l94 130h84l94 -130h-74z" />
    <glyph glyph-name="Scircumflex" unicode="&#x15c;" horiz-adv-x="506" 
d="M34 141l69 30c19 -54 61 -109 153 -109c74 0 127 43 127 116c0 175 -328 130 -328 356c0 100 76 179 200 179c125 0 181 -87 198 -134l-68 -28c-16 35 -54 88 -131 88s-118 -47 -118 -105c0 -160 329 -127 329 -351c0 -110 -81 -196 -212 -196c-136 0 -197 87 -219 154z
M316 749l-62 82l-61 -82h-75l94 130h84l94 -130h-74z" />
    <glyph glyph-name="sacute" unicode="&#x15b;" horiz-adv-x="417" 
d="M29 98l55 36c22 -41 59 -80 130 -80c52 0 96 30 96 83c0 120 -261 79 -261 255c0 88 73 141 167 141c97 0 147 -61 161 -100l-58 -33c-14 28 -41 67 -108 67c-48 0 -86 -27 -86 -72c0 -117 262 -73 262 -254c0 -92 -76 -154 -177 -154c-109 0 -158 62 -181 111zM160 583
l71 142h87l-89 -142h-69z" />
    <glyph glyph-name="Sacute" unicode="&#x15a;" horiz-adv-x="506" 
d="M34 141l69 30c19 -54 61 -109 153 -109c74 0 127 43 127 116c0 175 -328 130 -328 356c0 100 76 179 200 179c125 0 181 -87 198 -134l-68 -28c-16 35 -54 88 -131 88s-118 -47 -118 -105c0 -160 329 -127 329 -351c0 -110 -81 -196 -212 -196c-136 0 -197 87 -219 154z
M207 744l71 142h87l-89 -142h-69z" />
    <glyph glyph-name="rcaron" unicode="&#x159;" horiz-adv-x="321" 
d="M301 533v-79c-119 0 -154 -94 -154 -205v-249h-79v520h78v-87c18 52 76 100 155 100zM174 642l62 82h74l-94 -130h-84l-94 130h75z" />
    <glyph glyph-name="Rcaron" unicode="&#x158;" horiz-adv-x="547" 
d="M79 0v700h178c143 0 218 -72 218 -194c0 -83 -41 -159 -122 -185l174 -321h-90l-158 304h-119v-304h-81zM160 375h97c82 0 133 38 133 130c0 74 -39 123 -138 123h-92v-253zM255 797l62 82h74l-94 -130h-84l-94 130h75z" />
    <glyph glyph-name="racute" unicode="&#x155;" horiz-adv-x="321" 
d="M301 533v-79c-119 0 -154 -94 -154 -205v-249h-79v520h78v-87c18 52 76 100 155 100zM138 583l71 142h87l-89 -142h-69z" />
    <glyph glyph-name="Racute" unicode="&#x154;" horiz-adv-x="547" 
d="M79 0v700h178c143 0 218 -72 218 -194c0 -83 -41 -159 -122 -185l174 -321h-90l-158 304h-119v-304h-81zM160 375h97c82 0 133 38 133 130c0 74 -39 123 -138 123h-92v-253zM214 744l71 142h87l-89 -142h-69z" />
    <glyph glyph-name="ohungarumlaut" unicode="&#x151;" horiz-adv-x="609" 
d="M114 260c0 -117 79 -201 190 -201c112 0 192 85 192 201c0 115 -80 201 -192 201s-190 -87 -190 -201zM33 260c0 157 117 273 272 273c157 0 271 -117 271 -273s-116 -273 -272 -273s-271 115 -271 273zM324 583l71 142h83l-89 -142h-65zM198 583l71 142h83l-89 -142h-65
z" />
    <glyph glyph-name="Ohungarumlaut" unicode="&#x150;" horiz-adv-x="791" 
d="M38 350c0 206 154 363 357 363c204 0 357 -159 357 -363c0 -206 -154 -363 -358 -363c-203 0 -356 155 -356 363zM122 350c0 -166 118 -287 273 -287s273 121 273 287c0 164 -118 287 -273 287s-273 -123 -273 -287zM403 744l71 142h83l-89 -142h-65zM277 744l71 142h83
l-89 -142h-65z" />
    <glyph glyph-name="Obreve" unicode="&#x14e;" horiz-adv-x="791" 
d="M38 350c0 206 154 363 357 363c204 0 357 -159 357 -363c0 -206 -154 -363 -358 -363c-203 0 -356 155 -356 363zM122 350c0 -166 118 -287 273 -287s273 121 273 287c0 164 -118 287 -273 287s-273 -123 -273 -287zM398 747c-84 0 -127 56 -127 126h63
c0 -39 17 -71 64 -71c46 0 64 32 64 71h63c0 -70 -43 -126 -127 -126z" />
    <glyph glyph-name="omacron" unicode="&#x14d;" horiz-adv-x="609" 
d="M114 260c0 -117 79 -201 190 -201c112 0 192 85 192 201c0 115 -80 201 -192 201s-190 -87 -190 -201zM33 260c0 157 117 273 272 273c157 0 271 -117 271 -273s-116 -273 -272 -273s-271 115 -271 273zM186 629v63h242v-63h-242z" />
    <glyph glyph-name="Lacute" unicode="&#x139;" horiz-adv-x="449" 
d="M79 0v700h81v-627h262v-73h-343zM85 744l71 142h87l-89 -142h-69z" />
    <glyph glyph-name="lacute" unicode="&#x13a;" 
d="M68 0v723h79v-723h-79zM68 750l71 142h87l-89 -142h-69z" />
    <glyph glyph-name="lcommaaccent" unicode="&#x13c;" 
d="M68 0v723h79v-723h-79zM57 -86c0 29 22 53 51 53c33 0 56 -24 56 -59c0 -64 -32 -111 -72 -145l-34 33c15 12 39 39 44 67c-28 4 -45 27 -45 51z" />
    <glyph glyph-name="Lcommaaccent" unicode="&#x13b;" horiz-adv-x="449" 
d="M79 0v700h81v-627h262v-73h-343zM206 -86c0 29 22 53 51 53c33 0 56 -24 56 -59c0 -64 -32 -111 -72 -145l-34 33c15 12 39 39 44 67c-28 4 -45 27 -45 51z" />
    <glyph glyph-name="Lcaron" unicode="&#x13d;" horiz-adv-x="455" 
d="M282 530l7 170h82l-29 -170h-60zM79 0v700h81v-627h262v-73h-343z" />
    <glyph glyph-name="lcaron" unicode="&#x13e;" horiz-adv-x="219" 
d="M184 553l7 170h82l-29 -170h-60zM68 0v723h79v-723h-79z" />
    <glyph glyph-name="ldot" unicode="&#x140;" horiz-adv-x="327" 
d="M68 0v723h79v-723h-79zM191 327c0 31 25 56 56 56s57 -25 57 -56s-26 -57 -57 -57s-56 26 -56 57z" />
    <glyph glyph-name="Ldot" unicode="&#x13f;" horiz-adv-x="449" 
d="M79 0v700h81v-627h262v-73h-343zM262 368c0 31 25 56 56 56s57 -25 57 -56s-26 -57 -57 -57s-56 26 -56 57z" />
    <glyph glyph-name="Lslash" unicode="&#x141;" horiz-adv-x="449" 
d="M20 240v78l59 35v347h81v-300l124 76v-81l-124 -74v-248h262v-73h-343v274z" />
    <glyph glyph-name="lslash" unicode="&#x142;" horiz-adv-x="252" 
d="M18 277v80l65 42v324h79v-275l69 46v-82l-69 -45v-367h-79v319z" />
    <glyph glyph-name="Omacron" unicode="&#x14c;" horiz-adv-x="791" 
d="M38 350c0 206 154 363 357 363c204 0 357 -159 357 -363c0 -206 -154 -363 -358 -363c-203 0 -356 155 -356 363zM122 350c0 -166 118 -287 273 -287s273 121 273 287c0 164 -118 287 -273 287s-273 -123 -273 -287zM274 765v63h242v-63h-242z" />
    <glyph glyph-name="Nacute" unicode="&#x143;" horiz-adv-x="704" 
d="M78 0v700h81l386 -557v557h80v-700h-80l-386 555v-555h-81zM316 744l71 142h87l-89 -142h-69z" />
    <glyph glyph-name="nacute" unicode="&#x144;" horiz-adv-x="548" 
d="M301 533c121 0 183 -90 183 -208v-325h-79v328c0 83 -52 133 -123 133c-80 0 -135 -59 -135 -145v-316h-79v520h78v-75c25 47 83 88 155 88zM230 583l71 142h87l-89 -142h-69z" />
    <glyph glyph-name="Ncommaaccent" unicode="&#x145;" horiz-adv-x="704" 
d="M78 0v700h81l386 -557v557h80v-700h-80l-386 555v-555h-81zM298 -86c0 29 22 53 51 53c33 0 56 -24 56 -59c0 -64 -32 -111 -72 -145l-34 33c15 12 39 39 44 67c-28 4 -45 27 -45 51z" />
    <glyph glyph-name="ncommaaccent" unicode="&#x146;" horiz-adv-x="548" 
d="M301 533c121 0 183 -90 183 -208v-325h-79v328c0 83 -52 133 -123 133c-80 0 -135 -59 -135 -145v-316h-79v520h78v-75c25 47 83 88 155 88zM221 -86c0 29 22 53 51 53c33 0 56 -24 56 -59c0 -64 -32 -111 -72 -145l-34 33c15 12 39 39 44 67c-28 4 -45 27 -45 51z" />
    <glyph glyph-name="Ncaron" unicode="&#x147;" horiz-adv-x="704" 
d="M78 0v700h81l386 -557v557h80v-700h-80l-386 555v-555h-81zM353 797l62 82h74l-94 -130h-84l-94 130h75z" />
    <glyph glyph-name="ncaron" unicode="&#x148;" horiz-adv-x="548" 
d="M301 533c121 0 183 -90 183 -208v-325h-79v328c0 83 -52 133 -123 133c-80 0 -135 -59 -135 -145v-316h-79v520h78v-75c25 47 83 88 155 88zM285 642l62 82h74l-94 -130h-84l-94 130h75z" />
    <glyph glyph-name="napostrophe" unicode="&#x149;" horiz-adv-x="573" 
d="M326 533c121 0 183 -90 183 -208v-325h-79v328c0 83 -52 133 -123 133c-80 0 -135 -59 -135 -145v-316h-79v520h78v-75c25 47 83 88 155 88zM-14 663c0 29 22 53 51 53c33 0 56 -24 56 -59c0 -64 -32 -111 -72 -145l-34 33c15 12 39 39 44 67c-28 4 -45 27 -45 51z" />
    <glyph glyph-name="gcommaaccent" unicode="&#x123;" horiz-adv-x="607" 
d="M96 -140l28 62c20 -12 82 -43 157 -43c99 0 183 41 183 157v46c-12 -19 -66 -95 -180 -95c-149 0 -251 113 -251 272c0 160 103 274 250 274c108 0 167 -69 184 -97v84h76v-448c0 -197 -111 -264 -261 -264c-68 0 -141 24 -186 52zM467 259c0 126 -79 202 -178 202
c-101 0 -176 -83 -176 -202c0 -121 78 -200 178 -200c107 0 176 88 176 200zM349 627c0 -29 -22 -53 -51 -53c-33 0 -56 24 -56 59c0 64 32 111 72 145l34 -33c-15 -12 -39 -39 -44 -67c28 -4 45 -27 45 -51z" />
    <glyph glyph-name="iacute" unicode="&#xed;" 
d="M62 583l71 142h87l-89 -142h-69zM68 0v520h79v-520h-79z" />
    <glyph glyph-name="idieresis" unicode="&#xef;" 
d="M-23 653c0 27 22 50 50 50c29 0 50 -23 50 -50c0 -28 -21 -50 -50 -50c-28 0 -50 22 -50 50zM141 653c0 27 21 50 50 50c28 0 50 -23 50 -50c0 -28 -22 -50 -50 -50c-29 0 -50 22 -50 50zM68 0v520h79v-520h-79z" />
    <glyph glyph-name="icircumflex" unicode="&#xee;" 
d="M68 0v520h79v-520h-79zM172 594l-62 82l-61 -82h-75l94 130h84l94 -130h-74z" />
    <glyph glyph-name="igrave" unicode="&#xec;" 
d="M80 725l72 -142h-70l-88 142h86zM68 0v520h79v-520h-79z" />
    <glyph glyph-name="itilde" unicode="&#x129;" 
d="M173 601c-52 0 -87 45 -126 45c-22 0 -37 -17 -38 -44h-57c0 64 39 105 94 105c51 0 89 -44 125 -44c22 0 37 17 38 44h56c0 -64 -37 -106 -92 -106zM68 0v520h79v-520h-79z" />
    <glyph glyph-name="ibreve" unicode="&#x12d;" 
d="M108 587c-84 0 -127 56 -127 126h63c0 -39 17 -71 64 -71c46 0 64 32 64 71h63c0 -70 -43 -126 -127 -126zM68 0v520h79v-520h-79z" />
    <glyph glyph-name="imacron" unicode="&#x12b;" 
d="M-13 629v63h242v-63h-242zM68 0v520h79v-520h-79z" />
    <glyph glyph-name="Eng" unicode="&#x14a;" horiz-adv-x="704" 
d="M382 -180l9 72s33 -9 66 -9c55 0 88 31 88 102v15l-386 570v-570h-81v700h81l386 -572v572h80v-726c0 -108 -60 -164 -159 -164c-42 0 -75 7 -84 10z" />
    <glyph glyph-name="eng" unicode="&#x14b;" horiz-adv-x="548" 
d="M405 -15v343c0 83 -52 133 -123 133c-80 0 -135 -59 -135 -145v-316h-79v520h78v-75c25 47 83 88 155 88c121 0 183 -90 183 -208v-342c0 -132 -72 -174 -162 -174c-12 0 -27 2 -27 2v68s13 -1 23 -1c57 0 87 33 87 107z" />
    <glyph glyph-name="ccedilla" unicode="&#xe7;" horiz-adv-x="512" 
d="M482 462l-27 -68c-21 22 -75 66 -154 66c-109 0 -186 -87 -186 -200c0 -112 81 -201 188 -201c82 0 134 48 155 69l24 -67c-21 -22 -85 -74 -183 -74l-5 -34c50 -5 80 -39 80 -85c0 -67 -54 -93 -113 -93c-17 0 -39 4 -42 5l9 51s16 -3 30 -3c28 0 56 8 56 41
c0 27 -23 41 -57 41c-10 0 -19 -2 -19 -2l11 84c-128 22 -216 131 -216 268c0 154 115 273 266 273c95 0 156 -45 183 -71z" />
    <glyph glyph-name="Ccedilla" unicode="&#xc7;" horiz-adv-x="656" 
d="M595 138l25 -71c-27 -24 -108 -80 -226 -80c-7 0 -16 1 -16 1l-4 -35c50 -5 80 -39 80 -85c0 -67 -54 -93 -113 -93c-17 0 -39 4 -42 5l9 51s16 -3 30 -3c28 0 56 8 56 41c0 27 -23 41 -57 41c-10 0 -19 -2 -19 -2l11 85c-171 28 -290 172 -290 357
c0 206 155 363 353 363c105 0 180 -43 217 -73l-26 -72c-27 22 -96 69 -189 69c-155 0 -271 -124 -271 -287s111 -287 273 -287c106 0 175 55 199 75z" />
    <glyph glyph-name="Eogonek" unicode="&#x118;" horiz-adv-x="474" 
d="M79 0v700h332v-74h-251v-233h219v-73h-219v-247h262v-73c-18 -7 -70 -38 -70 -83c0 -34 30 -48 61 -48v-62s-8 -2 -24 -2c-53 0 -109 30 -109 94c0 50 42 88 75 101h-276z" />
    <glyph glyph-name="eogonek" unicode="&#x119;" horiz-adv-x="565" 
d="M245 -101c0 38 24 70 51 88c-156 3 -262 112 -262 271c0 166 114 275 252 275c153 0 247 -110 247 -266v-24h-418c1 -116 79 -186 187 -186c88 0 137 46 162 81l52 -38c-21 -36 -63 -79 -129 -100c-18 -7 -70 -38 -70 -83c0 -34 30 -48 61 -48v-62s-8 -2 -24 -2
c-53 0 -109 30 -109 94zM119 302h333c-5 108 -80 163 -166 163c-85 0 -159 -58 -167 -163z" />
    <glyph glyph-name="Aogonek" unicode="&#x104;" horiz-adv-x="631" 
d="M476 -101c0 50 44 88 77 101h-17l-84 227h-274l-84 -227h-82l262 700h82l262 -700c-18 -7 -70 -38 -70 -83c0 -34 30 -48 61 -48v-62s-8 -2 -24 -2c-53 0 -109 30 -109 94zM428 297l-113 314l-112 -314h225z" />
    <glyph glyph-name="aogonek" unicode="&#x105;" horiz-adv-x="510" 
d="M308 -101c0 50 43 88 75 101l-10 44c-27 -31 -71 -57 -141 -57c-114 0 -198 72 -198 173c0 99 83 171 200 171c66 0 116 -25 137 -47v64c0 73 -49 115 -126 115c-64 0 -116 -23 -153 -45l-32 58c35 22 104 57 192 57c142 0 198 -79 198 -190v-343c-18 -7 -70 -38 -70 -83
c0 -34 30 -48 61 -48v-62s-8 -2 -24 -2c-53 0 -109 30 -109 94zM114 161c0 -60 51 -108 131 -108c76 0 129 45 129 108c0 65 -52 107 -130 107c-79 0 -130 -46 -130 -107z" />
    <glyph glyph-name="uogonek" unicode="&#x173;" horiz-adv-x="543" 
d="M338 -101c0 50 42 88 75 101h-12v75c-24 -47 -83 -88 -154 -88c-121 0 -184 90 -184 208v325h79v-328c0 -83 53 -133 123 -133c80 0 135 59 135 145v316h80v-520c-18 -7 -70 -38 -70 -83c0 -34 30 -48 61 -48v-62s-8 -2 -24 -2c-53 0 -109 30 -109 94z" />
    <glyph glyph-name="Uogonek" unicode="&#x172;" horiz-adv-x="672" 
d="M337 -13c-169 0 -262 105 -262 264v449h81v-448c0 -116 62 -190 180 -190s181 74 181 191v447h80v-448c0 -127 -62 -221 -172 -253c-20 -8 -67 -39 -67 -82c0 -34 30 -48 61 -48v-62s-8 -2 -24 -2c-53 0 -109 30 -109 94c0 38 24 70 51 88z" />
    <glyph glyph-name="iogonek" unicode="&#x12f;" 
d="M68 0v520h79v-520c-18 -7 -70 -38 -70 -83c0 -34 30 -48 61 -48v-62s-8 -2 -24 -2c-53 0 -109 30 -109 94c0 50 42 88 75 101h-12zM53 654c0 30 24 54 54 54c31 0 55 -24 55 -54c0 -31 -24 -55 -55 -55c-30 0 -54 24 -54 55z" />
    <glyph glyph-name="Iogonek" unicode="&#x12e;" horiz-adv-x="239" 
d="M79 0v700h81v-700c-18 -7 -70 -38 -70 -83c0 -34 30 -48 61 -48v-62s-8 -2 -24 -2c-53 0 -109 30 -109 94c0 50 42 88 75 101h-14z" />
    <glyph glyph-name="Scedilla" unicode="&#x15e;" horiz-adv-x="506" 
d="M34 141l69 30c19 -54 61 -109 153 -109c74 0 127 43 127 116c0 175 -328 130 -328 356c0 100 76 179 200 179c125 0 181 -87 198 -134l-68 -28c-16 35 -54 88 -131 88s-118 -47 -118 -105c0 -160 329 -127 329 -351c0 -104 -72 -186 -190 -195l-5 -35
c50 -5 80 -39 80 -85c0 -67 -54 -93 -113 -93c-17 0 -39 4 -42 5l9 51s16 -3 30 -3c28 0 56 8 56 41c0 27 -23 41 -57 41c-10 0 -19 -2 -19 -2l11 81c-117 11 -171 90 -191 152z" />
    <glyph glyph-name="scedilla" unicode="&#x15f;" horiz-adv-x="417" 
d="M29 98l55 36c22 -41 59 -80 130 -80c52 0 96 30 96 83c0 120 -261 79 -261 255c0 88 73 141 167 141c97 0 147 -61 161 -100l-58 -33c-14 28 -41 67 -108 67c-48 0 -86 -27 -86 -72c0 -117 262 -73 262 -254c0 -86 -67 -146 -158 -153l-5 -35c50 -5 80 -39 80 -85
c0 -67 -54 -93 -113 -93c-17 0 -39 4 -42 5l9 51s16 -3 30 -3c28 0 56 8 56 41c0 27 -23 41 -57 41c-10 0 -19 -2 -19 -2l11 81c-88 11 -130 65 -150 109z" />
    <glyph glyph-name="obreve" unicode="&#x14f;" horiz-adv-x="609" 
d="M114 260c0 -117 79 -201 190 -201c112 0 192 85 192 201c0 115 -80 201 -192 201s-190 -87 -190 -201zM33 260c0 157 117 273 272 273c157 0 271 -117 271 -273s-116 -273 -272 -273s-271 115 -271 273zM304 587c-84 0 -127 56 -127 126h63c0 -39 17 -71 64 -71
c46 0 64 32 64 71h63c0 -70 -43 -126 -127 -126z" />
    <glyph glyph-name="OE" unicode="&#x152;" horiz-adv-x="1080" 
d="M38 350c0 206 154 363 357 363c34 0 67 -5 98 -13h524v-74h-386c65 -58 108 -140 118 -233h236v-73h-234c-8 -101 -52 -187 -121 -247h398v-73h-536c-31 -8 -64 -13 -98 -13c-203 0 -356 155 -356 363zM122 350c0 -166 118 -287 273 -287s273 121 273 287
c0 164 -118 287 -273 287s-273 -123 -273 -287z" />
    <glyph glyph-name="numero" unicode="&#x2116;" horiz-adv-x="1120" 
d="M778 534c0 -61 42 -111 110 -111s110 50 110 111s-42 113 -110 113s-110 -52 -110 -113zM710 534c0 97 73 179 178 179s178 -82 178 -179s-73 -177 -178 -177s-178 80 -178 177zM78 0v700h81l386 -572v572h80v-700h-80l-386 570v-570h-81zM724 228v74h327v-74h-327z" />
    <glyph glyph-name="hyphen.caps" horiz-adv-x="338" 
d="M41 319v74h255v-74h-255z" />
    <glyph glyph-name="endash.caps" horiz-adv-x="600" 
d="M41 325v68h518v-68h-518z" />
    <glyph glyph-name="emdash.caps" horiz-adv-x="866" 
d="M41 325v68h783v-68h-783z" />
    <glyph glyph-name="guillemotleft.caps" horiz-adv-x="428" 
d="M192 357l125 184h77l-125 -184l125 -183h-77zM158 174l-124 183l124 184h77l-124 -184l124 -183h-77z" />
    <glyph glyph-name="guillemotright.caps" horiz-adv-x="428" 
d="M111 541l125 -184l-125 -183h-77l125 183l-125 184h77zM394 357l-124 -183h-77l124 183l-124 184h77z" />
    <glyph glyph-name="guilsinglleft.caps" horiz-adv-x="270" 
d="M158 174l-124 183l124 184h77l-124 -184l124 -183h-77z" />
    <glyph glyph-name="guilsinglright.caps" horiz-adv-x="270" 
d="M111 541l125 -184l-125 -183h-77l125 183l-125 184h77z" />
    <glyph glyph-name="parenleft.caps" horiz-adv-x="299" 
d="M146 643v-592c0 -50 22 -88 83 -88v-69c-103 0 -162 51 -162 161v584c0 111 59 161 162 161v-69c-61 0 -83 -37 -83 -88z" />
    <glyph glyph-name="parenright.caps" horiz-adv-x="299" 
d="M153 51v592c0 51 -22 88 -83 88v69c103 0 162 -50 162 -161v-584c0 -110 -59 -161 -162 -161v69c61 0 83 38 83 88z" />
    <glyph glyph-name="bracketleft.caps" horiz-adv-x="299" 
d="M67 -106v906h162v-69h-83v-768h83v-69h-162z" />
    <glyph glyph-name="bracketright.caps" horiz-adv-x="305" 
d="M232 800v-906h-162v69h83v768h-83v69h162z" />
    <glyph glyph-name="braceleft.caps" horiz-adv-x="341" 
d="M109 55v143c0 83 -27 113 -73 113v72c47 0 73 30 73 113v143c0 111 59 161 162 161v-69c-61 0 -83 -37 -83 -88v-165c0 -95 -50 -125 -67 -131c17 -6 67 -36 67 -131v-165c0 -51 22 -88 83 -88v-69c-103 0 -162 50 -162 161z" />
    <glyph glyph-name="bar.caps" horiz-adv-x="252" 
d="M88 -168v989h76v-989h-76z" />
    <glyph glyph-name="braceright.caps" horiz-adv-x="341" 
d="M232 198v-143c0 -111 -59 -161 -162 -161v69c61 0 83 37 83 88v165c0 95 50 125 67 131c-17 6 -67 36 -67 131v165c0 51 -22 88 -83 88v69c103 0 162 -50 162 -161v-143c0 -83 26 -113 73 -113v-72c-46 0 -73 -30 -73 -113z" />
    <glyph glyph-name="slash.caps" horiz-adv-x="426" 
d="M25 -81l303 858h73l-303 -858h-73z" />
    <glyph glyph-name="backslash.caps" horiz-adv-x="426" 
d="M98 777l303 -858h-73l-303 858h73z" />
    <glyph glyph-name="exclamdown.caps" horiz-adv-x="258" 
d="M164 524l7 -524h-83l7 524h69zM186 657c0 -31 -26 -56 -57 -56s-56 25 -56 56s25 56 56 56s57 -25 57 -56z" />
    <glyph glyph-name="questiondown.caps" horiz-adv-x="467" 
d="M296 523v-47c0 -136 -174 -169 -174 -300c0 -67 44 -117 120 -117c75 0 107 49 123 84l62 -29c-19 -53 -73 -127 -187 -127c-125 0 -201 79 -201 186c0 163 179 195 179 306v44h78zM312 656c0 -31 -25 -56 -56 -56s-56 25 -56 56s25 57 56 57s56 -26 56 -57z" />
    <glyph glyph-name="periodcentered.caps" horiz-adv-x="226" 
d="M56 357c0 31 25 56 56 56s57 -25 57 -56s-26 -57 -57 -57s-56 26 -56 57z" />
    <glyph glyph-name="bullet.caps" horiz-adv-x="406" 
d="M203 182c-99 0 -172 77 -172 172s73 172 172 172s172 -77 172 -172s-73 -172 -172 -172z" />
    <glyph glyph-name="zero.tab" horiz-adv-x="554" 
d="M503 350c0 -230 -51 -363 -226 -363s-226 133 -226 363s51 363 226 363s226 -133 226 -363zM133 350c0 -165 12 -287 144 -287s143 123 143 287s-11 287 -143 287s-144 -124 -144 -287z" />
    <glyph glyph-name="one.tab" horiz-adv-x="554" 
d="M466 0h-355v74h142v544l-137 -62l-29 64l181 80h66v-626h132v-74z" />
    <glyph glyph-name="two.tab" horiz-adv-x="554" 
d="M64 0v30c0 195 332 304 332 483c0 71 -46 124 -127 124c-79 0 -116 -51 -131 -108l-71 20c11 58 65 164 204 164c133 0 208 -86 208 -198c0 -208 -313 -322 -322 -443h332v-72h-425z" />
    <glyph glyph-name="three.tab" horiz-adv-x="554" 
d="M472 700v-76l-183 -214c90 0 208 -59 208 -206c0 -124 -96 -216 -222 -216c-139 0 -198 83 -218 152l69 25c18 -56 61 -103 148 -103c80 0 140 58 140 140c0 80 -57 137 -164 137h-54v65l185 223h-301v73h392z" />
    <glyph glyph-name="four.tab" horiz-adv-x="554" 
d="M28 177v61l319 462h86v-451h92v-72h-92v-177h-80v177h-325zM117 249h236v346z" />
    <glyph glyph-name="five.tab" horiz-adv-x="554" 
d="M275 62c88 0 140 69 140 156c0 86 -54 156 -147 156c-56 0 -89 -23 -116 -46l-68 12l15 360h357v-74h-284l-10 -216c31 21 70 34 117 34c129 0 218 -92 218 -222c0 -133 -87 -235 -219 -235c-135 0 -200 84 -221 153l70 25c17 -57 62 -103 148 -103z" />
    <glyph glyph-name="six.tab" horiz-adv-x="554" 
d="M283 63c81 0 137 57 137 163c0 86 -47 154 -138 154c-68 0 -118 -40 -147 -97c0 -116 19 -220 148 -220zM312 713c73 0 126 -28 158 -50l-37 -62c-24 17 -60 36 -118 36c-140 0 -178 -141 -178 -262c26 37 75 79 156 79c132 0 208 -96 208 -226
c0 -149 -85 -241 -221 -241c-178 0 -227 142 -227 307c0 251 69 419 259 419z" />
    <glyph glyph-name="seven.tab" horiz-adv-x="554" 
d="M57 700h440v-62l-257 -638h-86l255 626h-352v74z" />
    <glyph glyph-name="eight.tab" horiz-adv-x="554" 
d="M276 -13c-135 0 -229 84 -229 209c0 106 75 160 119 178c-37 18 -96 70 -96 152c0 112 88 187 206 187c119 0 207 -75 207 -187c0 -82 -59 -134 -96 -152c44 -18 119 -72 119 -178c0 -125 -95 -209 -230 -209zM276 333c-82 0 -146 -51 -146 -137c0 -71 52 -135 146 -135
c95 0 146 64 146 135c0 86 -63 137 -146 137zM276 407c73 0 125 53 125 116s-44 115 -125 115s-124 -52 -124 -115s52 -116 124 -116z" />
    <glyph glyph-name="nine.tab" horiz-adv-x="554" 
d="M271 637c-81 0 -137 -57 -137 -163c0 -86 47 -154 138 -154c68 0 118 40 147 97c0 116 -19 220 -148 220zM242 -13c-73 0 -126 28 -158 50l37 62c24 -17 60 -36 118 -36c140 0 178 141 178 262c-26 -37 -75 -79 -156 -79c-132 0 -208 96 -208 226c0 149 85 241 221 241
c178 0 227 -142 227 -307c0 -251 -69 -419 -259 -419z" />
    <glyph glyph-name="Aringacute" unicode="&#x1fa;" horiz-adv-x="630" 
d="M225 743c0 51 38 87 89 87c54 0 91 -36 91 -86c0 -32 -15 -58 -38 -73l251 -671h-82l-84 227h-274l-84 -227h-82l251 670c-24 16 -38 42 -38 73zM428 297l-113 314l-112 -314h225zM281 856l71 142h87l-89 -142h-69zM274 743c0 -25 16 -42 41 -42c26 0 41 17 41 43
c0 24 -15 41 -42 41c-24 0 -40 -17 -40 -42z" />
    <glyph glyph-name="aringacute" unicode="&#x1fb;" horiz-adv-x="510" 
d="M34 160c0 99 83 171 200 171c66 0 116 -25 137 -47v64c0 73 -49 115 -126 115c-64 0 -116 -23 -153 -45l-32 58c35 22 104 57 192 57c142 0 198 -79 198 -190v-343h-68l-9 44c-27 -31 -71 -57 -141 -57c-114 0 -198 72 -198 173zM114 161c0 -60 51 -108 131 -108
c76 0 129 45 129 108c0 65 -52 107 -130 107c-79 0 -130 -46 -130 -107zM219 772l71 142h87l-89 -142h-69zM166 656c0 51 38 87 89 87c54 0 91 -36 91 -86c0 -51 -38 -88 -90 -88s-90 37 -90 87zM215 656c0 -25 16 -42 41 -42c26 0 41 17 41 43c0 24 -15 41 -42 41
c-24 0 -40 -17 -40 -42z" />
    <glyph glyph-name="AEacute" unicode="&#x1fc;" horiz-adv-x="811" 
d="M8 0l357 700h383v-74h-251v-233h219v-73h-219v-247h261v-73h-342v227h-209l-111 -227h-88zM401 626l-160 -329h175v329h-15zM448 744l71 142h87l-89 -142h-69z" />
    <glyph glyph-name="aeacute" unicode="&#x1fd;" horiz-adv-x="899" 
d="M34 160c0 99 83 171 200 171c66 0 116 -25 137 -47v64c0 73 -49 115 -126 115c-64 0 -116 -23 -153 -45l-32 58c35 22 104 57 192 57c95 0 152 -40 175 -101c44 64 114 101 193 101c153 0 247 -110 247 -266v-24h-417c1 -116 78 -186 186 -186c88 0 137 46 162 81l52 -38
c-29 -49 -96 -113 -214 -113c-97 0 -177 39 -219 111c-22 -54 -81 -111 -185 -111c-114 0 -198 72 -198 173zM114 161c0 -60 51 -108 131 -108c76 0 127 45 127 108c0 65 -50 107 -128 107c-79 0 -130 -46 -130 -107zM453 302h333c-5 108 -80 163 -166 163
c-84 0 -158 -58 -167 -163zM385 583l71 142h87l-89 -142h-69z" />
    <glyph glyph-name="Oslashacute" unicode="&#x1fe;" horiz-adv-x="790" 
d="M39 350c0 206 154 363 357 363c74 0 142 -22 197 -59l52 65l50 -40l-51 -65c68 -65 109 -158 109 -264c0 -206 -154 -363 -358 -363c-75 0 -143 21 -199 58l-51 -65l-50 40l51 65c-67 65 -107 158 -107 265zM123 350c0 -80 28 -150 75 -200l346 442
c-41 28 -93 45 -148 45c-156 0 -273 -123 -273 -287zM669 350c0 79 -29 149 -76 200l-348 -443c43 -29 94 -44 151 -44c154 0 273 121 273 287zM345 744l71 142h87l-89 -142h-69z" />
    <glyph glyph-name="oslashacute" unicode="&#x1ff;" horiz-adv-x="609" 
d="M33 260c0 157 117 273 272 273c55 0 106 -15 148 -42l38 49l46 -37l-38 -48c49 -49 77 -117 77 -195c0 -156 -116 -273 -272 -273c-53 0 -102 13 -142 37l-38 -48l-46 36l37 47c-51 49 -82 119 -82 201zM114 260c0 -56 18 -104 50 -139l242 311c-29 18 -63 29 -102 29
c-112 0 -190 -87 -190 -201zM496 260c0 51 -17 97 -46 132l-241 -308c27 -17 59 -25 95 -25c112 0 192 85 192 201zM255 583l71 142h87l-89 -142h-69z" />
    <glyph glyph-name="Wgrave" unicode="&#x1e80;" horiz-adv-x="942" 
d="M641 0l-170 581l-170 -581h-90l-200 700h87l161 -597l172 597h80l172 -597l162 597h86l-199 -700h-91zM430 886l72 -142h-70l-88 142h86z" />
    <glyph glyph-name="wgrave" unicode="&#x1e81;" horiz-adv-x="816" 
d="M546 0l-138 413l-139 -413h-87l-175 520h86l136 -428s1 2 140 428h78c138 -426 139 -428 139 -428l137 428h86l-176 -520h-87zM375 725l72 -142h-70l-88 142h86z" />
    <glyph glyph-name="Wacute" unicode="&#x1e82;" horiz-adv-x="898" 
d="M641 0l-170 581l-170 -581h-90l-200 700h87l161 -597l172 597h80l172 -597l162 597h86l-199 -700h-91zM424 744l71 142h87l-89 -142h-69z" />
    <glyph glyph-name="wacute" unicode="&#x1e83;" horiz-adv-x="816" 
d="M546 0l-138 413l-139 -413h-87l-175 520h86l136 -428s1 2 140 428h78c138 -426 139 -428 139 -428l137 428h86l-176 -520h-87zM372 583l71 142h87l-89 -142h-69z" />
    <glyph glyph-name="Wdieresis" unicode="&#x1e84;" horiz-adv-x="942" 
d="M641 0l-170 581l-170 -581h-90l-200 700h87l161 -597l172 597h80l172 -597l162 597h86l-199 -700h-91zM339 812c0 27 22 50 50 50c29 0 50 -23 50 -50c0 -28 -21 -50 -50 -50c-28 0 -50 22 -50 50zM503 812c0 27 21 50 50 50c28 0 50 -23 50 -50c0 -28 -22 -50 -50 -50
c-29 0 -50 22 -50 50z" />
    <glyph glyph-name="wdieresis" unicode="&#x1e85;" horiz-adv-x="816" 
d="M546 0l-138 413l-139 -413h-87l-175 520h86l136 -428s1 2 140 428h78c138 -426 139 -428 139 -428l137 428h86l-176 -520h-87zM275 653c0 27 22 50 50 50c29 0 50 -23 50 -50c0 -28 -21 -50 -50 -50c-28 0 -50 22 -50 50zM439 653c0 27 21 50 50 50c28 0 50 -23 50 -50
c0 -28 -22 -50 -50 -50c-29 0 -50 22 -50 50z" />
    <glyph glyph-name="Ygrave" unicode="&#x1ef2;" horiz-adv-x="532" 
d="M226 0v328l-217 372h93l164 -295l167 295h90l-217 -372v-328h-80zM231 886l72 -142h-70l-88 142h86z" />
    <glyph glyph-name="ygrave" unicode="&#x1ef3;" horiz-adv-x="508" 
d="M222 -179h-79l75 184l-212 515h86l165 -418l160 418h84zM240 725l72 -142h-70l-88 142h86z" />
    <glyph glyph-name="uni021A" unicode="&#x21a;" horiz-adv-x="511" 
d="M210 0v626h-189v74h458v-74h-188v-626h-81zM196 -86c0 29 22 53 51 53c33 0 56 -24 56 -59c0 -64 -32 -111 -72 -145l-34 33c15 12 39 39 44 67c-28 4 -45 27 -45 51z" />
    <glyph glyph-name="uni021B" unicode="&#x21b;" horiz-adv-x="295" 
d="M74 520v109h79v-109h114v-67h-114v-268c0 -97 28 -120 96 -120c10 0 22 1 22 1v-70s-21 -3 -48 -3c-104 0 -149 68 -149 185v275h-61v67h61zM132 -86c0 29 22 53 51 53c33 0 56 -24 56 -59c0 -64 -32 -111 -72 -145l-34 33c15 12 39 39 44 67c-28 4 -45 27 -45 51z" />
    </font>
</defs>
</svg>
